查看: 30|回复: 0

[2160p-WEB] 波士顿绞杀手.Boston.Strangler.2023.2160p.HULU.WEB-DL.x265.10bit.HDR10Plus.DDP5.1-NAISU 11.49GB

[复制链接]
蓝光币
112 枚
发表于 2023-3-18 08:19:00 | 显示全部楼层 |阅读模式


◎译  名 波士顿绞杀手 / 波士顿绞杀手(台) / The Boston Strangler
◎片  名 Boston Strangler
◎年  代 2023
◎产  地 美国
◎类  别 剧情 / 惊悚 / 历史 / 犯罪
◎语  言 英语
◎上映日期 2023-03-17(美国收集)
◎IMDb链接  https://www.imdb.com/title/tt2560078/
◎豆瓣链接 https://movie.douban.com/subject/35614661/
◎片  长 112分钟
◎导  演 马特·罗斯金 / Matt Ruskin
◎演  员 凯拉·奈特莉 / Keira Knightley | 饰 Loretta McLaughlin
      凯莉·库恩 / Carrie Coon | 饰 Jean Cole
      亚历桑德罗·尼沃拉 / Alessandro Nivola
      大卫·达斯马齐连 / David Dastmalchian
      克里斯·库珀 / Chris Cooper
      罗利·科奇瑞恩 / Rory Cochrane | 饰 Detective Deline
      摩根·斯佩克特 / Morgan Spector
      罗伯特·约翰·伯克 / Robert John Burke | 饰 Eddie Holland
      克里斯·西德贝里 / Kris Sidberry | 饰 Sophie Clark
      乔·林德斯特伦 / Jon Lindstrom | 饰 Doug Berman
      欧文·伯克 / Owen Burke | 饰 Officer Shanley
      詹姆斯·西科内 / James Ciccone | 饰 Det. Linski
      罗布·勒维克 / Rob Lévesque | 饰 Private Club Waiter
      维克多·沃伦 / Victor Warren | 饰 The Director
      玛丽·安·绍布 / Mary Ann Schaub | 饰 Courthouse Clerk
      内森·里奇曼 / Nate Richman | 饰 Patrolman
      查利·瑟斯顿 / Charlie Thurston | 饰 Fritz
      迈克·巴什 / Mike Bash | 饰 Tony Curtis
      约翰·李·艾姆斯 / John Lee Ames | 饰 Harrison
      Josh Drennen Josh Drennen | 饰 Burke
      Ian Lyons Ian Lyons | 饰 Gordon Nielson
      马科·查卡 / Marko Caka | 饰 Waiter
      迈克尔·马尔韦斯蒂 / Michael Malvesti | 饰 Detective Donovan
      比尔·索普 / Bill Thorpe | 饰 Interrogation Detective
      Danielle Perry Danielle Perry | 饰 Nurse Deb McNulty
      罗伯特·C·柯克 / Robert C. Kirk | 饰 Arthur Gully
      托马斯·马里亚诺 / Thomas Mariano | 饰 Prison Guard
      约翰·哈威 / John Hawe | 饰 Copy Boy
      亚美利哥·普雷休蒂 / Americo Presciutti | 饰 City Official
      大卫·布肯德尔 / David Bookbinder | 饰 Reporter
◎编  剧 马特·罗斯金 / Matt Ruskin
◎制  片  人 玛格特·罗比 / Margot Robbie
◎音  乐 保罗·伦纳德·摩根 / Paul Leonard-Morgan
◎摄  影 本·库钦 / Ben Kutchins
◎服  装 阿尔俊·巴辛 / Arjun Bhasin
◎简  介 
  影片聚焦污名昭著的波士顿抹杀者谋杀案:1962年到1964年,13名单身女性在公寓被攻击、性侵、勒死,警方经观察锁定嫌犯Albert DeS alvo,后者认罪被判毕生禁锢,以后在牢狱被人杀死。此案存在诸多疑点,实在的连环杀手和杀戮DeSalvo之人至今还是谜。
  1. Video
  2. ID : 1
  3. Format : HEVC
  4. Format/Info : High Efficiency Video Coding
  5. Format profile : Main [email protected]@Main
  6. HDR format : Dolby Vision, Version 1.0, dvhe.08.06, BL+RPU, HDR10 compatible / SMPTE ST 2094 App 4, Version 1, HDR10+ Profile B compatible
  7. Codec ID : V_MPEGH/ISO/HEVC
  8. Duration : 1 h 52 min
  9. Bit rate : 14.1 Mb/s
  10. Width : 3 840 pixels
  11. Height : 2 160 pixels
  12. Display aspect ratio : 16:9
  13. Frame rate mode : Constant
  14. Frame rate : 24.000 FPS
  15. Color space : YUV
  16. Chroma subsampling : 4:2:0 (Type 2)
  17. Bit depth : 10 bits
  18. Bits/(Pixel*Frame) : 0.071
  19. Stream size : 11.1 GiB (96%)
  20. Default : Yes
  21. Forced : No
  22. Color range : Limited
  23. Color primaries : BT.2020
  24. Transfer characteristics : PQ
  25. Matrix coefficients : BT.2020 non-constant
  26. Mastering display color primaries : Display P3
  27. Mastering display luminance : min: 0.0001 cd/m2, max: 1000 cd/m2
  28. Maximum Content Light Level : 1042 cd/m2
  29. Maximum Frame-Average Light Level : 495 cd/m2
  30. Audio
  31. ID : 2
  32. Format : E-AC-3
  33. Format/Info : Enhanced AC-3
  34. Commercial name : Dolby Digital Plus
  35. Codec ID : A_EAC3
  36. Duration : 1 h 52 min
  37. Bit rate mode : Constant
  38. Bit rate : 256 kb/s
  39. Channel(s) : 6 channels
  40. Channel layout : L R C LFE Ls Rs
  41. Sampling rate : 48.0 kHz
  42. Frame rate : 31.250 FPS (1536 SPF)
  43. Compression mode : Lossy
  44. Stream size : 206 MiB (2%)
  45. Language : English
  46. Service kind : Complete Main
  47. Default : Yes
  48. Forced : No
  49. Text #1
  50. ID : 3
  51. Format : UTF-8
  52. Codec ID : S_TEXT/UTF8
  53. Codec ID/Info : UTF-8 Plain Text
  54. Title : English [SDH]
  55. Language : English
  56. Default : No
  57. Forced : No
  58. Text #2
  59. ID : 4
  60. Format : UTF-8
  61. Codec ID : S_TEXT/UTF8
  62. Codec ID/Info : UTF-8 Plain Text
  63. Title : Spanish [SDH]
  64. Language : Spanish
  65. Default : No
  66. Forced : No
复制代码











Boston.Strangler.2023.2160p.HULU.WEB-DL.x265.10bit.HDR10Plus.DDP5.1-NAISU.torrent (15.09 KB, 下载次数: 2)
回复

使用道具 举报

懒得打字嘛,点击右侧快捷回复 【右侧内容,后台自定义】
您需要登录后才可以回帖 登录 | 立即注册

本版积分规则

Archiver|手机版|小黑屋| 中国高清网  |网站地图

GMT+8, 2023-3-31 17:31 , Processed in 0.085597 second(s), 26 queries .

Powered by HDchina X3.4

Copyright 2017-2019©HDchina.All right reserved

返回顶部 联系我们