查看: 118|回复: 2

[2160p-WEB] 紫心之恋[中文字幕].Purple.Hearts.2022.2160p.NF.WEB-DL.DDP5.1.Atmos.DV.MKV.x265-CM 14.58GB

[复制链接]
蓝光币
78 枚
发表于 2023-1-19 19:36:19 | 显示全部楼层 |阅读模式


◎标  题 紫心之恋
◎片  名 Purple Hearts
◎年  代 2022
◎产  地 美国
◎类  别 剧情 / 恋爱 / 音乐
◎语  言 英语
◎上映日期 2022-07-29(美国收集)
◎IMDb评分 6.7/10 (38354人评价)
◎IMDb链接 https://www.imdb.com/title/tt4614584/
◎豆瓣评分 6.6/10 (7317人评价)
◎豆瓣链接 https://movie.douban.com/subject/35955845/
◎片  长 122分钟
◎导  演 伊丽莎白·艾伦 Elizabeth Allen
◎编  剧 丽兹·加西亚 Liz W. Garcia
◎演  员 尼古拉斯·加利齐纳 Nicholas Galitzine
       索菲亚·卡尔森 Sofia Carson
       林登·阿什比 Linden Ashby
       约翰·哈伦·金 John Harlan Kim
       乔森·雅各布 Chosen Jacobs
       卡特里娜·坎宁安 Katrina Cunningham
       斯科特·德克特 Scott Deckert
       阿桑特·琼斯 Asante Jones
       黛比·范 Debbie Fan
       斯利姆·克什里 Slim Khezri
       亚历克斯·威克索 Alex Wexo
◎简  介
    虽然存在很多分歧,受疾病困扰的创作歌手卡西和堕入窘境的水兵陆战队员卢克赞成仅出于好处而成婚。可是当悲剧发生时,实在和子虚之间的界限起头变得模糊……
  1. Video
  2. ID                                       : 1
  3. Format                                   : HEVC
  4. Format/Info                              : High Efficiency Video Coding
  5. Format profile                           : Main [email protected]@Main
  6. HDR format                               : Dolby Vision, Version 1.0, dvhe.05.06, BL+RPU
  7. Codec ID                                 : V_MPEGH/ISO/HEVC
  8. Duration                                 : 2 h 4 min
  9. Bit rate                                 : 16.0 Mb/s
  10. Width                                    : 3 840 pixels
  11. Height                                   : 2 160 pixels
  12. Display aspect ratio                     : 16:9
  13. Frame rate mode                          : Constant
  14. Frame rate                               : 24.000 FPS
  15. Color space                              : YUV
  16. Chroma subsampling                       : 4:2:0
  17. Bit depth                                : 10 bits
  18. Bits/(Pixel*Frame)                       : 0.080
  19. Stream size                              : 13.9 GiB (95%)
  20. Default                                  : Yes
  21. Forced                                   : No
  22. Color range                              : Full
  23. Audio
  24. ID                                       : 2
  25. Format                                   : E-AC-3 JOC
  26. Format/Info                              : Enhanced AC-3 with Joint Object Coding
  27. Commercial name                          : Dolby Digital Plus with Dolby Atmos
  28. Codec ID                                 : A_EAC3
  29. Duration                                 : 2 h 4 min
  30. Bit rate mode                            : Constant
  31. Bit rate                                 : 768 kb/s
  32. Channel(s)                               : 6 channels
  33. Channel layout                           : L R C LFE Ls Rs
  34. Sampling rate                            : 48.0 kHz
  35. Frame rate                               : 31.250 FPS (1536 SPF)
  36. Compression mode                         : Lossy
  37. Stream size                              : 684 MiB (5%)
  38. Title                                    : English
  39. Language                                 : English
  40. Service kind                             : Complete Main
  41. Default                                  : No
  42. Forced                                   : No
  43. Complexity index                         : 16
  44. Number of dynamic objects                : 15
  45. Bed channel count                        : 1 channel
  46. Bed channel configuration                : LFE
  47. Text #1
  48. ID                                       : 3
  49. Format                                   : UTF-8
  50. Codec ID                                 : S_TEXT/UTF8
  51. Codec ID/Info                            : UTF-8 Plain Text
  52. Duration                                 : 2 h 2 min
  53. Bit rate                                 : 114 b/s
  54. Frame rate                               : 0.225 FPS
  55. Count of elements                        : 1647
  56. Stream size                              : 103 KiB (0%)
  57. Title                                    : Arabic
  58. Language                                 : Arabic
  59. Default                                  : No
  60. Forced                                   : No
  61. Text #2
  62. ID                                       : 4
  63. Format                                   : UTF-8
  64. Codec ID                                 : S_TEXT/UTF8
  65. Codec ID/Info                            : UTF-8 Plain Text
  66. Duration                                 : 2 h 2 min
  67. Bit rate                                 : 49 b/s
  68. Frame rate                               : 0.220 FPS
  69. Count of elements                        : 1616
  70. Stream size                              : 44.2 KiB (0%)
  71. Title                                    : Basque
  72. Language                                 : Basque
  73. Default                                  : No
  74. Forced                                   : No
  75. Text #3
  76. ID                                       : 5
  77. Format                                   : UTF-8
  78. Codec ID                                 : S_TEXT/UTF8
  79. Codec ID/Info                            : UTF-8 Plain Text
  80. Duration                                 : 2 h 2 min
  81. Bit rate                                 : 51 b/s
  82. Frame rate                               : 0.217 FPS
  83. Count of elements                        : 1593
  84. Stream size                              : 45.8 KiB (0%)
  85. Title                                    : Catalan
  86. Language                                 : Catalan
  87. Default                                  : No
  88. Forced                                   : No
  89. Text #4
  90. ID                                       : 6
  91. Format                                   : UTF-8
  92. Codec ID                                 : S_TEXT/UTF8
  93. Codec ID/Info                            : UTF-8 Plain Text
  94. Duration                                 : 2 h 2 min
  95. Bit rate                                 : 58 b/s
  96. Frame rate                               : 0.222 FPS
  97. Count of elements                        : 1628
  98. Stream size                              : 52.3 KiB (0%)
  99. Title                                    : Chinese Simplified
  100. Language                                 : Chinese
  101. Default                                  : No
  102. Forced                                   : No
  103. Text #5
  104. ID                                       : 7
  105. Format                                   : UTF-8
  106. Codec ID                                 : S_TEXT/UTF8
  107. Codec ID/Info                            : UTF-8 Plain Text
  108. Duration                                 : 2 h 2 min
  109. Bit rate                                 : 61 b/s
  110. Frame rate                               : 0.228 FPS
  111. Count of elements                        : 1675
  112. Stream size                              : 55.4 KiB (0%)
  113. Title                                    : Chinese Traditional
  114. Language                                 : Chinese
  115. Default                                  : No
  116. Forced                                   : No
  117. Text #6
  118. ID                                       : 8
  119. Format                                   : UTF-8
  120. Codec ID                                 : S_TEXT/UTF8
  121. Codec ID/Info                            : UTF-8 Plain Text
  122. Duration                                 : 2 h 2 min
  123. Bit rate                                 : 51 b/s
  124. Frame rate                               : 0.213 FPS
  125. Count of elements                        : 1560
  126. Stream size                              : 46.0 KiB (0%)
  127. Title                                    : Czech
  128. Language                                 : Czech
  129. Default                                  : No
  130. Forced                                   : No
  131. Text #7
  132. ID                                       : 9
  133. Format                                   : UTF-8
  134. Codec ID                                 : S_TEXT/UTF8
  135. Codec ID/Info                            : UTF-8 Plain Text
  136. Duration                                 : 2 h 2 min
  137. Bit rate                                 : 49 b/s
  138. Frame rate                               : 0.204 FPS
  139. Count of elements                        : 1494
  140. Stream size                              : 44.2 KiB (0%)
  141. Title                                    : Danish
  142. Language                                 : Danish
  143. Default                                  : No
  144. Forced                                   : No
  145. Text #8
  146. ID                                       : 10
  147. Format                                   : UTF-8
  148. Codec ID                                 : S_TEXT/UTF8
  149. Codec ID/Info                            : UTF-8 Plain Text
  150. Duration                                 : 1 h 56 min
  151. Bit rate                                 : 56 b/s
  152. Frame rate                               : 0.197 FPS
  153. Count of elements                        : 1381
  154. Stream size                              : 47.9 KiB (0%)
  155. Title                                    : Dutch
  156. Language                                 : Dutch
  157. Default                                  : No
  158. Forced                                   : No
  159. Text #9
  160. ID                                       : 11
  161. Format                                   : UTF-8
  162. Codec ID                                 : S_TEXT/UTF8
  163. Codec ID/Info                            : UTF-8 Plain Text
  164. Duration                                 : 2 h 1 min
  165. Bit rate                                 : 85 b/s
  166. Frame rate                               : 0.315 FPS
  167. Count of elements                        : 2292
  168. Stream size                              : 75.7 KiB (0%)
  169. Title                                    : English [SDH]
  170. Language                                 : English
  171. Default                                  : No
  172. Forced                                   : No
  173. Text #10
  174. ID                                       : 12
  175. Format                                   : UTF-8
  176. Codec ID                                 : S_TEXT/UTF8
  177. Codec ID/Info                            : UTF-8 Plain Text
  178. Duration                                 : 1 h 58 min
  179. Bit rate                                 : 58 b/s
  180. Frame rate                               : 0.224 FPS
  181. Count of elements                        : 1591
  182. Stream size                              : 50.9 KiB (0%)
  183. Title                                    : English
  184. Language                                 : English
  185. Default                                  : No
  186. Forced                                   : No
  187. Text #11
  188. ID                                       : 13
  189. Format                                   : UTF-8
  190. Codec ID                                 : S_TEXT/UTF8
  191. Codec ID/Info                            : UTF-8 Plain Text
  192. Duration                                 : 2 h 2 min
  193. Bit rate                                 : 44 b/s
  194. Frame rate                               : 0.152 FPS
  195. Count of elements                        : 1118
  196. Stream size                              : 39.8 KiB (0%)
  197. Title                                    : Finnish
  198. Language                                 : Finnish
  199. Default                                  : No
  200. Forced                                   : No
  201. Text #12
  202. ID                                       : 14
  203. Format                                   : UTF-8
  204. Codec ID                                 : S_TEXT/UTF8
  205. Codec ID/Info                            : UTF-8 Plain Text
  206. Duration                                 : 2 h 2 min
  207. Bit rate                                 : 77 b/s
  208. Frame rate                               : 0.290 FPS
  209. Count of elements                        : 2127
  210. Stream size                              : 69.2 KiB (0%)
  211. Title                                    : French [SDH]
  212. Language                                 : French
  213. Default                                  : No
  214. Forced                                   : No
  215. Text #13
  216. ID                                       : 15
  217. Format                                   : UTF-8
  218. Codec ID                                 : S_TEXT/UTF8
  219. Codec ID/Info                            : UTF-8 Plain Text
  220. Duration                                 : 2 h 1 min
  221. Bit rate                                 : 58 b/s
  222. Frame rate                               : 0.216 FPS
  223. Count of elements                        : 1576
  224. Stream size                              : 52.2 KiB (0%)
  225. Title                                    : French
  226. Language                                 : French
  227. Default                                  : No
  228. Forced                                   : No
  229. Text #14
  230. ID                                       : 16
  231. Format                                   : UTF-8
  232. Codec ID                                 : S_TEXT/UTF8
  233. Codec ID/Info                            : UTF-8 Plain Text
  234. Duration                                 : 1 h 56 min
  235. Bit rate                                 : 75 b/s
  236. Frame rate                               : 0.282 FPS
  237. Count of elements                        : 1980
  238. Stream size                              : 64.7 KiB (0%)
  239. Title                                    : German [SDH]
  240. Language                                 : German
  241. Default                                  : No
  242. Forced                                   : No
  243. Text #15
  244. ID                                       : 17
  245. Format                                   : UTF-8
  246. Codec ID                                 : S_TEXT/UTF8
  247. Codec ID/Info                            : UTF-8 Plain Text
  248. Duration                                 : 1 h 56 min
  249. Bit rate                                 : 60 b/s
  250. Frame rate                               : 0.221 FPS
  251. Count of elements                        : 1546
  252. Stream size                              : 51.6 KiB (0%)
  253. Title                                    : German
  254. Language                                 : German
  255. Default                                  : No
  256. Forced                                   : No
  257. Text #16
  258. ID                                       : 18
  259. Format                                   : UTF-8
  260. Codec ID                                 : S_TEXT/UTF8
  261. Codec ID/Info                            : UTF-8 Plain Text
  262. Duration                                 : 2 h 2 min
  263. Bit rate                                 : 47 b/s
  264. Frame rate                               : 0.219 FPS
  265. Count of elements                        : 1608
  266. Stream size                              : 42.2 KiB (0%)
  267. Title                                    : Galician
  268. Language                                 : Galician
  269. Default                                  : No
  270. Forced                                   : No
  271. Text #17
  272. ID                                       : 19
  273. Format                                   : UTF-8
  274. Codec ID                                 : S_TEXT/UTF8
  275. Codec ID/Info                            : UTF-8 Plain Text
  276. Duration                                 : 2 h 2 min
  277. Bit rate                                 : 87 b/s
  278. Frame rate                               : 0.215 FPS
  279. Count of elements                        : 1576
  280. Stream size                              : 78.2 KiB (0%)
  281. Title                                    : Greek
  282. Language                                 : Greek
  283. Default                                  : No
  284. Forced                                   : No
  285. Text #18
  286. ID                                       : 20
  287. Format                                   : UTF-8
  288. Codec ID                                 : S_TEXT/UTF8
  289. Codec ID/Info                            : UTF-8 Plain Text
  290. Duration                                 : 2 h 2 min
  291. Bit rate                                 : 91 b/s
  292. Frame rate                               : 0.220 FPS
  293. Count of elements                        : 1615
  294. Stream size                              : 82.1 KiB (0%)
  295. Title                                    : Hebrew
  296. Language                                 : Hebrew
  297. Default                                  : No
  298. Forced                                   : No
  299. Text #19
  300. ID                                       : 21
  301. Format                                   : UTF-8
  302. Codec ID                                 : S_TEXT/UTF8
  303. Codec ID/Info                            : UTF-8 Plain Text
  304. Duration                                 : 2 h 2 min
  305. Bit rate                                 : 46 b/s
  306. Frame rate                               : 0.213 FPS
  307. Count of elements                        : 1559
  308. Stream size                              : 41.9 KiB (0%)
  309. Title                                    : Croatian
  310. Language                                 : Croatian
  311. Default                                  : No
  312. Forced                                   : No
  313. Text #20
  314. ID                                       : 22
  315. Format                                   : UTF-8
  316. Codec ID                                 : S_TEXT/UTF8
  317. Codec ID/Info                            : UTF-8 Plain Text
  318. Duration                                 : 2 h 2 min
  319. Bit rate                                 : 53 b/s
  320. Frame rate                               : 0.209 FPS
  321. Count of elements                        : 1530
  322. Stream size                              : 48.2 KiB (0%)
  323. Title                                    : Hungarian
  324. Language                                 : Hungarian
  325. Default                                  : No
  326. Forced                                   : No
  327. Text #21
  328. ID                                       : 23
  329. Format                                   : UTF-8
  330. Codec ID                                 : S_TEXT/UTF8
  331. Codec ID/Info                            : UTF-8 Plain Text
  332. Duration                                 : 2 h 2 min
  333. Bit rate                                 : 49 b/s
  334. Frame rate                               : 0.219 FPS
  335. Count of elements                        : 1604
  336. Stream size                              : 44.3 KiB (0%)
  337. Title                                    : Indonesian
  338. Language                                 : Indonesian
  339. Default                                  : No
  340. Forced                                   : No
  341. Text #22
  342. ID                                       : 24
  343. Format                                   : UTF-8
  344. Codec ID                                 : S_TEXT/UTF8
  345. Codec ID/Info                            : UTF-8 Plain Text
  346. Duration                                 : 2 h 2 min
  347. Bit rate                                 : 50 b/s
  348. Frame rate                               : 0.206 FPS
  349. Count of elements                        : 1514
  350. Stream size                              : 45.5 KiB (0%)
  351. Title                                    : Italian
  352. Language                                 : Italian
  353. Default                                  : No
  354. Forced                                   : No
  355. Text #23
  356. ID                                       : 25
  357. Format                                   : UTF-8
  358. Codec ID                                 : S_TEXT/UTF8
  359. Codec ID/Info                            : UTF-8 Plain Text
  360. Duration                                 : 2 h 2 min
  361. Bit rate                                 : 58 b/s
  362. Frame rate                               : 0.243 FPS
  363. Count of elements                        : 1785
  364. Stream size                              : 52.5 KiB (0%)
  365. Title                                    : Japanese
  366. Language                                 : Japanese
  367. Default                                  : No
  368. Forced                                   : No
  369. Text #24
  370. ID                                       : 26
  371. Format                                   : UTF-8
  372. Codec ID                                 : S_TEXT/UTF8
  373. Codec ID/Info                            : UTF-8 Plain Text
  374. Duration                                 : 2 h 2 min
  375. Bit rate                                 : 69 b/s
  376. Frame rate                               : 0.219 FPS
  377. Count of elements                        : 1608
  378. Stream size                              : 62.2 KiB (0%)
  379. Title                                    : Korean
  380. Language                                 : Korean
  381. Default                                  : No
  382. Forced                                   : No
  383. Text #25
  384. ID                                       : 27
  385. Format                                   : UTF-8
  386. Codec ID                                 : S_TEXT/UTF8
  387. Codec ID/Info                            : UTF-8 Plain Text
  388. Duration                                 : 2 h 2 min
  389. Bit rate                                 : 52 b/s
  390. Frame rate                               : 0.214 FPS
  391. Count of elements                        : 1572
  392. Stream size                              : 46.7 KiB (0%)
  393. Title                                    : Malay
  394. Language                                 : Malay
  395. Default                                  : No
  396. Forced                                   : No
  397. Text #26
  398. ID                                       : 28
  399. Format                                   : UTF-8
  400. Codec ID                                 : S_TEXT/UTF8
  401. Codec ID/Info                            : UTF-8 Plain Text
  402. Duration                                 : 2 h 2 min
  403. Bit rate                                 : 51 b/s
  404. Frame rate                               : 0.199 FPS
  405. Count of elements                        : 1458
  406. Stream size                              : 45.8 KiB (0%)
  407. Title                                    : Norwegian Bokmal
  408. Language                                 : Norwegian Bokmal
  409. Default                                  : No
  410. Forced                                   : No
  411. Text #27
  412. ID                                       : 29
  413. Format                                   : UTF-8
  414. Codec ID                                 : S_TEXT/UTF8
  415. Codec ID/Info                            : UTF-8 Plain Text
  416. Duration                                 : 2 h 2 min
  417. Bit rate                                 : 52 b/s
  418. Frame rate                               : 0.219 FPS
  419. Count of elements                        : 1602
  420. Stream size                              : 46.8 KiB (0%)
  421. Title                                    : Filipino
  422. Language                                 : phi
  423. Default                                  : No
  424. Forced                                   : No
  425. Text #28
  426. ID                                       : 30
  427. Format                                   : UTF-8
  428. Codec ID                                 : S_TEXT/UTF8
  429. Codec ID/Info                            : UTF-8 Plain Text
  430. Duration                                 : 2 h 2 min
  431. Bit rate                                 : 50 b/s
  432. Frame rate                               : 0.215 FPS
  433. Count of elements                        : 1580
  434. Stream size                              : 45.5 KiB (0%)
  435. Title                                    : Polish
  436. Language                                 : Polish
  437. Default                                  : No
  438. Forced                                   : No
  439. Text #29
  440. ID                                       : 31
  441. Format                                   : UTF-8
  442. Codec ID                                 : S_TEXT/UTF8
  443. Codec ID/Info                            : UTF-8 Plain Text
  444. Duration                                 : 2 h 2 min
  445. Bit rate                                 : 69 b/s
  446. Frame rate                               : 0.263 FPS
  447. Count of elements                        : 1929
  448. Stream size                              : 62.1 KiB (0%)
  449. Title                                    : Brazilian Portuguese [SDH]
  450. Language                                 : Portuguese
  451. Default                                  : No
  452. Forced                                   : No
  453. Text #30
  454. ID                                       : 32
  455. Format                                   : UTF-8
  456. Codec ID                                 : S_TEXT/UTF8
  457. Codec ID/Info                            : UTF-8 Plain Text
  458. Duration                                 : 2 h 2 min
  459. Bit rate                                 : 56 b/s
  460. Frame rate                               : 0.219 FPS
  461. Count of elements                        : 1606
  462. Stream size                              : 50.2 KiB (0%)
  463. Title                                    : Brazilian Portuguese
  464. Language                                 : Portuguese
  465. Default                                  : No
  466. Forced                                   : No
  467. Text #31
  468. ID                                       : 33
  469. Format                                   : UTF-8
  470. Codec ID                                 : S_TEXT/UTF8
  471. Codec ID/Info                            : UTF-8 Plain Text
  472. Duration                                 : 2 h 2 min
  473. Bit rate                                 : 49 b/s
  474. Frame rate                               : 0.212 FPS
  475. Count of elements                        : 1556
  476. Stream size                              : 44.7 KiB (0%)
  477. Title                                    : Portuguese
  478. Language                                 : Portuguese
  479. Default                                  : No
  480. Forced                                   : No
  481. Text #32
  482. ID                                       : 34
  483. Format                                   : UTF-8
  484. Codec ID                                 : S_TEXT/UTF8
  485. Codec ID/Info                            : UTF-8 Plain Text
  486. Duration                                 : 2 h 2 min
  487. Bit rate                                 : 57 b/s
  488. Frame rate                               : 0.203 FPS
  489. Count of elements                        : 1485
  490. Stream size                              : 51.8 KiB (0%)
  491. Title                                    : Romanian
  492. Language                                 : Romanian
  493. Default                                  : No
  494. Forced                                   : No
  495. Text #33
  496. ID                                       : 35
  497. Format                                   : UTF-8
  498. Codec ID                                 : S_TEXT/UTF8
  499. Codec ID/Info                            : UTF-8 Plain Text
  500. Duration                                 : 2 h 2 min
  501. Bit rate                                 : 86 b/s
  502. Frame rate                               : 0.219 FPS
  503. Count of elements                        : 1604
  504. Stream size                              : 77.5 KiB (0%)
  505. Title                                    : Russian
  506. Language                                 : Russian
  507. Default                                  : No
  508. Forced                                   : No
  509. Text #34
  510. ID                                       : 36
  511. Format                                   : UTF-8
  512. Codec ID                                 : S_TEXT/UTF8
  513. Codec ID/Info                            : UTF-8 Plain Text
  514. Duration                                 : 2 h 2 min
  515. Bit rate                                 : 52 b/s
  516. Frame rate                               : 0.216 FPS
  517. Count of elements                        : 1587
  518. Stream size                              : 47.0 KiB (0%)
  519. Title                                    : European Spanish
  520. Language                                 : Spanish
  521. Default                                  : No
  522. Forced                                   : No
  523. Text #35
  524. ID                                       : 37
  525. Format                                   : UTF-8
  526. Codec ID                                 : S_TEXT/UTF8
  527. Codec ID/Info                            : UTF-8 Plain Text
  528. Duration                                 : 2 h 2 min
  529. Bit rate                                 : 67 b/s
  530. Frame rate                               : 0.269 FPS
  531. Count of elements                        : 1974
  532. Stream size                              : 60.9 KiB (0%)
  533. Title                                    : Spanish [SDH]
  534. Language                                 : Spanish
  535. Default                                  : No
  536. Forced                                   : No
  537. Text #36
  538. ID                                       : 38
  539. Format                                   : UTF-8
  540. Codec ID                                 : S_TEXT/UTF8
  541. Codec ID/Info                            : UTF-8 Plain Text
  542. Duration                                 : 2 h 2 min
  543. Bit rate                                 : 54 b/s
  544. Frame rate                               : 0.221 FPS
  545. Count of elements                        : 1623
  546. Stream size                              : 48.5 KiB (0%)
  547. Title                                    : Spanish
  548. Language                                 : Spanish
  549. Default                                  : No
  550. Forced                                   : No
  551. Text #37
  552. ID                                       : 39
  553. Format                                   : UTF-8
  554. Codec ID                                 : S_TEXT/UTF8
  555. Codec ID/Info                            : UTF-8 Plain Text
  556. Duration                                 : 2 h 2 min
  557. Bit rate                                 : 49 b/s
  558. Frame rate                               : 0.188 FPS
  559. Count of elements                        : 1377
  560. Stream size                              : 44.4 KiB (0%)
  561. Title                                    : Swedish
  562. Language                                 : Swedish
  563. Default                                  : No
  564. Forced                                   : No
  565. Text #38
  566. ID                                       : 40
  567. Format                                   : UTF-8
  568. Codec ID                                 : S_TEXT/UTF8
  569. Codec ID/Info                            : UTF-8 Plain Text
  570. Duration                                 : 2 h 2 min
  571. Bit rate                                 : 157 b/s
  572. Frame rate                               : 0.222 FPS
  573. Count of elements                        : 1629
  574. Stream size                              : 141 KiB (0%)
  575. Title                                    : Thai
  576. Language                                 : Thai
  577. Default                                  : No
  578. Forced                                   : No
  579. Text #39
  580. ID                                       : 41
  581. Format                                   : UTF-8
  582. Codec ID                                 : S_TEXT/UTF8
  583. Codec ID/Info                            : UTF-8 Plain Text
  584. Duration                                 : 2 h 2 min
  585. Bit rate                                 : 51 b/s
  586. Frame rate                               : 0.217 FPS
  587. Count of elements                        : 1589
  588. Stream size                              : 46.0 KiB (0%)
  589. Title                                    : Turkish
  590. Language                                 : Turkish
  591. Default                                  : No
  592. Forced                                   : No
  593. Text #40
  594. ID                                       : 42
  595. Format                                   : UTF-8
  596. Codec ID                                 : S_TEXT/UTF8
  597. Codec ID/Info                            : UTF-8 Plain Text
  598. Duration                                 : 2 h 2 min
  599. Bit rate                                 : 79 b/s
  600. Frame rate                               : 0.216 FPS
  601. Count of elements                        : 1583
  602. Stream size                              : 71.6 KiB (0%)
  603. Title                                    : Ukrainian
  604. Language                                 : Ukrainian
  605. Default                                  : No
  606. Forced                                   : No
  607. Text #41
  608. ID                                       : 43
  609. Format                                   : UTF-8
  610. Codec ID                                 : S_TEXT/UTF8
  611. Codec ID/Info                            : UTF-8 Plain Text
  612. Duration                                 : 2 h 2 min
  613. Bit rate                                 : 76 b/s
  614. Frame rate                               : 0.215 FPS
  615. Count of elements                        : 1576
  616. Stream size                              : 68.4 KiB (0%)
  617. Title                                    : Vietnamese
  618. Language                                 : Vietnamese
  619. Default                                  : No
  620. Forced                                   : No
复制代码











Purple.Hearts.2022.2160p.NF.WEB-DL.DDP5.1.Atmos.DV.MKV.x265-CM.torrent (18.88 KB, 下载次数: 4)
回复

使用道具 举报

蓝光币
2332 枚
发表于 2023-1-19 21:27:37 | 显示全部楼层

这东西我收了!谢谢楼主!中国高清电影网真好!
回复

使用道具 举报

蓝光币
125 枚
发表于 2023-1-20 13:24:57 | 显示全部楼层
谢谢楼主分享
回复

使用道具 举报

懒得打字嘛,点击右侧快捷回复 【右侧内容,后台自定义】
您需要登录后才可以回帖 登录 | 立即注册

本版积分规则

Archiver|手机版|小黑屋| 中国高清网 |网站地图 

GMT+8, 2023-1-30 00:09 , Processed in 0.145794 second(s), 26 queries .

Powered by HDchina X3.4

Copyright 2017-2019©HDchina.All right reserved

返回顶部 联系我们