查看: 188|回复: 0

[2160p-WEB] 紫心之恋[中文字幕].Purple.Hearts.2022.2160p.NF.WEB-DL.DDP5.1.Atmos.DV.MP4.x265-DVSUX 14.58GB

[复制链接]
蓝光币
78 枚
发表于 2023-1-19 19:36:19 | 显示全部楼层 |阅读模式


◎标  题 紫心之恋
◎片  名 Purple Hearts
◎年  代 2022
◎产  地 美国
◎类  别 剧情 / 恋爱 / 音乐
◎语  言 英语
◎上映日期 2022-07-29(美国收集)
◎IMDb评分 6.7/10 (38354人评价)
◎IMDb链接 https://www.imdb.com/title/tt4614584/
◎豆瓣评分 6.6/10 (7317人评价)
◎豆瓣链接 https://movie.douban.com/subject/35955845/
◎片  长 122分钟
◎导  演 伊丽莎白·艾伦 Elizabeth Allen
◎编  剧 丽兹·加西亚 Liz W. Garcia
◎演  员 尼古拉斯·加利齐纳 Nicholas Galitzine
       索菲亚·卡尔森 Sofia Carson
       林登·阿什比 Linden Ashby
       约翰·哈伦·金 John Harlan Kim
       乔森·雅各布 Chosen Jacobs
       卡特里娜·坎宁安 Katrina Cunningham
       斯科特·德克特 Scott Deckert
       阿桑特·琼斯 Asante Jones
       黛比·范 Debbie Fan
       斯利姆·克什里 Slim Khezri
       亚历克斯·威克索 Alex Wexo
◎简  介
    虽然存在很多分歧,受疾病困扰的创作歌手卡西和堕入窘境的水兵陆战队员卢克赞成仅出于好处而成婚。可是当悲剧发生时,实在和子虚之间的界限起头变得模糊……
  1. Video
  2. ID                                       : 1
  3. Format                                   : HEVC
  4. Format/Info                              : High Efficiency Video Coding
  5. Format profile                           : Main [email protected]@Main
  6. HDR format                               : Dolby Vision, Version 1.0, dvhe.05.06, BL+RPU
  7. Codec ID                                 : dvhe
  8. Codec ID/Info                            : High Efficiency Video Coding with Dolby Vision
  9. Duration                                 : 2 h 4 min
  10. Bit rate                                 : 16.0 Mb/s
  11. Width                                    : 3 840 pixels
  12. Height                                   : 2 160 pixels
  13. Display aspect ratio                     : 16:9
  14. Frame rate mode                          : Constant
  15. Frame rate                               : 24.000 FPS
  16. Color space                              : YUV
  17. Chroma subsampling                       : 4:2:0
  18. Bit depth                                : 10 bits
  19. Bits/(Pixel*Frame)                       : 0.080
  20. Stream size                              : 13.9 GiB (95%)
  21. Default                                  : Yes
  22. Alternate group                          : 1
  23. Encoded date                             : UTC 2023-01-06 10:08:38
  24. Tagged date                              : UTC 2023-01-06 10:13:16
  25. Color range                              : Full
  26. Codec configuration box                  : hvcC+dvcC
  27. Audio
  28. ID                                       : 2
  29. Format                                   : E-AC-3 JOC
  30. Format/Info                              : Enhanced AC-3 with Joint Object Coding
  31. Commercial name                          : Dolby Digital Plus with Dolby Atmos
  32. Codec ID                                 : ec-3
  33. Duration                                 : 2 h 4 min
  34. Bit rate mode                            : Constant
  35. Bit rate                                 : 768 kb/s
  36. Maximum bit rate                         : 811 kb/s
  37. Channel(s)                               : 6 channels
  38. Channel layout                           : L R C LFE Ls Rs
  39. Sampling rate                            : 48.0 kHz
  40. Frame rate                               : 31.250 FPS (1536 SPF)
  41. Compression mode                         : Lossy
  42. Stream size                              : 684 MiB (5%)
  43. Title                                    : English
  44. Language                                 : English
  45. Service kind                             : Complete Main
  46. Default                                  : Yes
  47. Alternate group                          : 1
  48. Tagged date                              : UTC 2023-01-06 10:13:16
  49. Complexity index                         : Not present / 16
  50. Number of dynamic objects                : 15
  51. Bed channel count                        : 1 channel
  52. Bed channel configuration                : LFE
  53. Text #1
  54. ID                                       : 3
  55. Format                                   : Timed Text
  56. Codec ID                                 : tx3g
  57. Duration                                 : 1 h 58 min
  58. Bit rate mode                            : Variable
  59. Bit rate                                 : 65 b/s
  60. Frame rate                               : 0.446 FPS
  61. Stream size                              : 56.4 KiB (0%)
  62. Title                                    : English
  63. Language                                 : English
  64. Forced                                   : No
  65. Encoded date                             : UTC 2023-01-06 10:13:09
  66. Tagged date                              : UTC 2023-01-06 10:13:16
  67. Text #2
  68. ID                                       : 4
  69. Format                                   : Timed Text
  70. Codec ID                                 : tx3g
  71. Duration                                 : 2 h 1 min
  72. Bit rate mode                            : Variable
  73. Bit rate                                 : 94 b/s
  74. Frame rate                               : 0.629 FPS
  75. Stream size                              : 83.7 KiB (0%)
  76. Title                                    : English
  77. Language                                 : English
  78. Forced                                   : No
  79. Encoded date                             : UTC 2023-01-06 10:13:09
  80. Tagged date                              : UTC 2023-01-06 10:13:16
  81. Text #3
  82. ID                                       : 5
  83. Format                                   : Timed Text
  84. Codec ID                                 : tx3g
  85. Duration                                 : 2 h 2 min
  86. Bit rate mode                            : Variable
  87. Bit rate                                 : 121 b/s
  88. Frame rate                               : 0.448 FPS
  89. Stream size                              : 109 KiB (0%)
  90. Title                                    : Arabic
  91. Language                                 : Arabic
  92. Forced                                   : No
  93. Encoded date                             : UTC 2023-01-06 10:13:09
  94. Tagged date                              : UTC 2023-01-06 10:13:16
  95. Text #4
  96. ID                                       : 6
  97. Format                                   : Timed Text
  98. Codec ID                                 : tx3g
  99. Duration                                 : 2 h 2 min
  100. Bit rate mode                            : Variable
  101. Bit rate                                 : 65 b/s
  102. Frame rate                               : 0.443 FPS
  103. Stream size                              : 58.2 KiB (0%)
  104. Title                                    : Chinese-Simplified
  105. Language                                 : Chinese (Simplied)
  106. Forced                                   : No
  107. Encoded date                             : UTC 2023-01-06 10:13:09
  108. Tagged date                              : UTC 2023-01-06 10:13:16
  109. Text #5
  110. ID                                       : 7
  111. Format                                   : Timed Text
  112. Codec ID                                 : tx3g
  113. Duration                                 : 2 h 2 min
  114. Bit rate mode                            : Variable
  115. Bit rate                                 : 68 b/s
  116. Frame rate                               : 0.455 FPS
  117. Stream size                              : 61.5 KiB (0%)
  118. Title                                    : Chinese-Traditional
  119. Language                                 : Chinese (Traditional)
  120. Forced                                   : No
  121. Encoded date                             : UTC 2023-01-06 10:13:09
  122. Tagged date                              : UTC 2023-01-06 10:13:16
  123. Text #6
  124. ID                                       : 8
  125. Format                                   : Timed Text
  126. Codec ID                                 : tx3g
  127. Duration                                 : 2 h 2 min
  128. Bit rate mode                            : Variable
  129. Bit rate                                 : 53 b/s
  130. Frame rate                               : 0.424 FPS
  131. Stream size                              : 47.6 KiB (0%)
  132. Title                                    : Croatian
  133. Language                                 : Croatian
  134. Forced                                   : No
  135. Encoded date                             : UTC 2023-01-06 10:13:10
  136. Tagged date                              : UTC 2023-01-06 10:13:16
  137. Text #7
  138. ID                                       : 9
  139. Format                                   : Timed Text
  140. Codec ID                                 : tx3g
  141. Duration                                 : 2 h 2 min
  142. Bit rate mode                            : Variable
  143. Bit rate                                 : 58 b/s
  144. Frame rate                               : 0.424 FPS
  145. Stream size                              : 51.7 KiB (0%)
  146. Title                                    : Czech
  147. Language                                 : Czech
  148. Forced                                   : No
  149. Encoded date                             : UTC 2023-01-06 10:13:11
  150. Tagged date                              : UTC 2023-01-06 10:13:16
  151. Text #8
  152. ID                                       : 10
  153. Format                                   : Timed Text
  154. Codec ID                                 : tx3g
  155. Duration                                 : 2 h 2 min
  156. Bit rate mode                            : Variable
  157. Bit rate                                 : 55 b/s
  158. Frame rate                               : 0.406 FPS
  159. Stream size                              : 49.5 KiB (0%)
  160. Title                                    : Danish
  161. Language                                 : Danish
  162. Forced                                   : No
  163. Encoded date                             : UTC 2023-01-06 10:13:11
  164. Tagged date                              : UTC 2023-01-06 10:13:16
  165. Text #9
  166. ID                                       : 11
  167. Format                                   : Timed Text
  168. Codec ID                                 : tx3g
  169. Duration                                 : 1 h 57 min
  170. Bit rate mode                            : Variable
  171. Bit rate                                 : 62 b/s
  172. Frame rate                               : 0.393 FPS
  173. Stream size                              : 52.7 KiB (0%)
  174. Title                                    : Dutch
  175. Language                                 : Dutch
  176. Forced                                   : No
  177. Encoded date                             : UTC 2023-01-06 10:13:12
  178. Tagged date                              : UTC 2023-01-06 10:13:16
  179. Text #10
  180. ID                                       : 12
  181. Format                                   : Timed Text
  182. Codec ID                                 : tx3g
  183. Duration                                 : 2 h 2 min
  184. Bit rate mode                            : Variable
  185. Bit rate                                 : 58 b/s
  186. Frame rate                               : 0.436 FPS
  187. Stream size                              : 52.5 KiB (0%)
  188. Title                                    : Filipino
  189. Language                                 : phi
  190. Forced                                   : No
  191. Encoded date                             : UTC 2023-01-06 10:13:12
  192. Tagged date                              : UTC 2023-01-06 10:13:16
  193. Text #11
  194. ID                                       : 13
  195. Format                                   : Timed Text
  196. Codec ID                                 : tx3g
  197. Duration                                 : 2 h 2 min
  198. Bit rate mode                            : Variable
  199. Bit rate                                 : 49 b/s
  200. Frame rate                               : 0.304 FPS
  201. Stream size                              : 43.6 KiB (0%)
  202. Title                                    : Finnish
  203. Language                                 : Finnish
  204. Forced                                   : No
  205. Encoded date                             : UTC 2023-01-06 10:13:12
  206. Tagged date                              : UTC 2023-01-06 10:13:16
  207. Text #12
  208. ID                                       : 14
  209. Format                                   : Timed Text
  210. Codec ID                                 : tx3g
  211. Duration                                 : 2 h 2 min
  212. Bit rate mode                            : Variable
  213. Bit rate                                 : 64 b/s
  214. Frame rate                               : 0.428 FPS
  215. Stream size                              : 57.7 KiB (0%)
  216. Title                                    : French
  217. Language                                 : French
  218. Forced                                   : No
  219. Encoded date                             : UTC 2023-01-06 10:13:12
  220. Tagged date                              : UTC 2023-01-06 10:13:16
  221. Text #13
  222. ID                                       : 15
  223. Format                                   : Timed Text
  224. Codec ID                                 : tx3g
  225. Duration                                 : 2 h 2 min
  226. Bit rate mode                            : Variable
  227. Bit rate                                 : 85 b/s
  228. Frame rate                               : 0.578 FPS
  229. Stream size                              : 76.8 KiB (0%)
  230. Title                                    : French
  231. Language                                 : French
  232. Forced                                   : No
  233. Encoded date                             : UTC 2023-01-06 10:13:12
  234. Tagged date                              : UTC 2023-01-06 10:13:16
  235. Text #14
  236. ID                                       : 16
  237. Format                                   : Timed Text
  238. Codec ID                                 : tx3g
  239. Duration                                 : 1 h 57 min
  240. Bit rate mode                            : Variable
  241. Bit rate                                 : 66 b/s
  242. Frame rate                               : 0.440 FPS
  243. Stream size                              : 57.0 KiB (0%)
  244. Title                                    : German
  245. Language                                 : German
  246. Forced                                   : No
  247. Encoded date                             : UTC 2023-01-06 10:13:12
  248. Tagged date                              : UTC 2023-01-06 10:13:16
  249. Text #15
  250. ID                                       : 17
  251. Format                                   : Timed Text
  252. Codec ID                                 : tx3g
  253. Duration                                 : 1 h 57 min
  254. Bit rate mode                            : Variable
  255. Bit rate                                 : 84 b/s
  256. Frame rate                               : 0.563 FPS
  257. Stream size                              : 71.7 KiB (0%)
  258. Title                                    : German
  259. Language                                 : German
  260. Forced                                   : No
  261. Encoded date                             : UTC 2023-01-06 10:13:13
  262. Tagged date                              : UTC 2023-01-06 10:13:16
  263. Text #16
  264. ID                                       : 18
  265. Format                                   : Timed Text
  266. Codec ID                                 : tx3g
  267. Duration                                 : 2 h 2 min
  268. Bit rate mode                            : Variable
  269. Bit rate                                 : 93 b/s
  270. Frame rate                               : 0.428 FPS
  271. Stream size                              : 83.9 KiB (0%)
  272. Title                                    : Greek
  273. Language                                 : Greek
  274. Forced                                   : No
  275. Encoded date                             : UTC 2023-01-06 10:13:13
  276. Tagged date                              : UTC 2023-01-06 10:13:16
  277. Text #17
  278. ID                                       : 19
  279. Format                                   : Timed Text
  280. Codec ID                                 : tx3g
  281. Duration                                 : 2 h 2 min
  282. Bit rate mode                            : Variable
  283. Bit rate                                 : 98 b/s
  284. Frame rate                               : 0.439 FPS
  285. Stream size                              : 88.0 KiB (0%)
  286. Title                                    : Hebrew
  287. Language                                 : Hebrew
  288. Forced                                   : No
  289. Encoded date                             : UTC 2023-01-06 10:13:13
  290. Tagged date                              : UTC 2023-01-06 10:13:16
  291. Text #18
  292. ID                                       : 20
  293. Format                                   : Timed Text
  294. Codec ID                                 : tx3g
  295. Duration                                 : 2 h 2 min
  296. Bit rate mode                            : Variable
  297. Bit rate                                 : 60 b/s
  298. Frame rate                               : 0.416 FPS
  299. Stream size                              : 53.7 KiB (0%)
  300. Title                                    : Hungarian
  301. Language                                 : Hungarian
  302. Forced                                   : No
  303. Encoded date                             : UTC 2023-01-06 10:13:13
  304. Tagged date                              : UTC 2023-01-06 10:13:16
  305. Text #19
  306. ID                                       : 21
  307. Format                                   : Timed Text
  308. Codec ID                                 : tx3g
  309. Duration                                 : 2 h 2 min
  310. Bit rate mode                            : Variable
  311. Bit rate                                 : 56 b/s
  312. Frame rate                               : 0.436 FPS
  313. Stream size                              : 50.1 KiB (0%)
  314. Title                                    : Indonesian
  315. Language                                 : Indonesian
  316. Forced                                   : No
  317. Encoded date                             : UTC 2023-01-06 10:13:13
  318. Tagged date                              : UTC 2023-01-06 10:13:16
  319. Text #20
  320. ID                                       : 22
  321. Format                                   : Timed Text
  322. Codec ID                                 : tx3g
  323. Duration                                 : 2 h 2 min
  324. Bit rate mode                            : Variable
  325. Bit rate                                 : 57 b/s
  326. Frame rate                               : 0.411 FPS
  327. Stream size                              : 50.8 KiB (0%)
  328. Title                                    : Italian
  329. Language                                 : Italian
  330. Forced                                   : No
  331. Encoded date                             : UTC 2023-01-06 10:13:13
  332. Tagged date                              : UTC 2023-01-06 10:13:16
  333. Text #21
  334. ID                                       : 23
  335. Format                                   : Timed Text
  336. Codec ID                                 : tx3g
  337. Duration                                 : 2 h 2 min
  338. Bit rate mode                            : Variable
  339. Bit rate                                 : 66 b/s
  340. Frame rate                               : 0.482 FPS
  341. Stream size                              : 59.1 KiB (0%)
  342. Title                                    : Japanese
  343. Language                                 : Japanese
  344. Forced                                   : No
  345. Encoded date                             : UTC 2023-01-06 10:13:13
  346. Tagged date                              : UTC 2023-01-06 10:13:16
  347. Text #22
  348. ID                                       : 24
  349. Format                                   : Timed Text
  350. Codec ID                                 : tx3g
  351. Duration                                 : 2 h 2 min
  352. Bit rate mode                            : Variable
  353. Bit rate                                 : 76 b/s
  354. Frame rate                               : 0.437 FPS
  355. Stream size                              : 67.9 KiB (0%)
  356. Title                                    : Korean
  357. Language                                 : Korean
  358. Forced                                   : No
  359. Encoded date                             : UTC 2023-01-06 10:13:13
  360. Tagged date                              : UTC 2023-01-06 10:13:16
  361. Text #23
  362. ID                                       : 25
  363. Format                                   : Timed Text
  364. Codec ID                                 : tx3g
  365. Duration                                 : 2 h 2 min
  366. Bit rate mode                            : Variable
  367. Bit rate                                 : 58 b/s
  368. Frame rate                               : 0.427 FPS
  369. Stream size                              : 52.3 KiB (0%)
  370. Title                                    : Malay
  371. Language                                 : Malay
  372. Forced                                   : No
  373. Encoded date                             : UTC 2023-01-06 10:13:14
  374. Tagged date                              : UTC 2023-01-06 10:13:16
  375. Text #24
  376. ID                                       : 26
  377. Format                                   : Timed Text
  378. Codec ID                                 : tx3g
  379. Duration                                 : 2 h 2 min
  380. Bit rate mode                            : Variable
  381. Bit rate                                 : 57 b/s
  382. Frame rate                               : 0.397 FPS
  383. Stream size                              : 50.9 KiB (0%)
  384. Title                                    : Norwegian
  385. Language                                 : Norwegian Bokmal
  386. Forced                                   : No
  387. Encoded date                             : UTC 2023-01-06 10:13:14
  388. Tagged date                              : UTC 2023-01-06 10:13:16
  389. Text #25
  390. ID                                       : 27
  391. Format                                   : Timed Text
  392. Codec ID                                 : tx3g
  393. Duration                                 : 2 h 2 min
  394. Bit rate mode                            : Variable
  395. Bit rate                                 : 57 b/s
  396. Frame rate                               : 0.430 FPS
  397. Stream size                              : 51.2 KiB (0%)
  398. Title                                    : Polish
  399. Language                                 : Polish
  400. Forced                                   : No
  401. Encoded date                             : UTC 2023-01-06 10:13:14
  402. Tagged date                              : UTC 2023-01-06 10:13:16
  403. Text #26
  404. ID                                       : 28
  405. Format                                   : Timed Text
  406. Codec ID                                 : tx3g
  407. Duration                                 : 2 h 2 min
  408. Bit rate mode                            : Variable
  409. Bit rate                                 : 56 b/s
  410. Frame rate                               : 0.423 FPS
  411. Stream size                              : 50.3 KiB (0%)
  412. Title                                    : Portuguese
  413. Language                                 : Portuguese
  414. Forced                                   : No
  415. Encoded date                             : UTC 2023-01-06 10:13:14
  416. Tagged date                              : UTC 2023-01-06 10:13:16
  417. Text #27
  418. ID                                       : 29
  419. Format                                   : Timed Text
  420. Codec ID                                 : tx3g
  421. Duration                                 : 2 h 2 min
  422. Bit rate mode                            : Variable
  423. Bit rate                                 : 62 b/s
  424. Frame rate                               : 0.436 FPS
  425. Stream size                              : 55.9 KiB (0%)
  426. Title                                    : Portuguese
  427. Language                                 : Portuguese
  428. Forced                                   : No
  429. Encoded date                             : UTC 2023-01-06 10:13:14
  430. Tagged date                              : UTC 2023-01-06 10:13:16
  431. Text #28
  432. ID                                       : 30
  433. Format                                   : Timed Text
  434. Codec ID                                 : tx3g
  435. Duration                                 : 2 h 2 min
  436. Bit rate mode                            : Variable
  437. Bit rate                                 : 77 b/s
  438. Frame rate                               : 0.524 FPS
  439. Stream size                              : 68.9 KiB (0%)
  440. Title                                    : Portuguese
  441. Language                                 : Portuguese
  442. Forced                                   : No
  443. Encoded date                             : UTC 2023-01-06 10:13:14
  444. Tagged date                              : UTC 2023-01-06 10:13:16
  445. Text #29
  446. ID                                       : 31
  447. Format                                   : Timed Text
  448. Codec ID                                 : tx3g
  449. Duration                                 : 2 h 2 min
  450. Bit rate mode                            : Variable
  451. Bit rate                                 : 64 b/s
  452. Frame rate                               : 0.404 FPS
  453. Stream size                              : 57.1 KiB (0%)
  454. Title                                    : Romanian
  455. Language                                 : Romanian
  456. Forced                                   : No
  457. Encoded date                             : UTC 2023-01-06 10:13:14
  458. Tagged date                              : UTC 2023-01-06 10:13:16
  459. Text #30
  460. ID                                       : 32
  461. Format                                   : Timed Text
  462. Codec ID                                 : tx3g
  463. Duration                                 : 2 h 2 min
  464. Bit rate mode                            : Variable
  465. Bit rate                                 : 93 b/s
  466. Frame rate                               : 0.436 FPS
  467. Stream size                              : 83.2 KiB (0%)
  468. Title                                    : Russian
  469. Language                                 : Russian
  470. Forced                                   : No
  471. Encoded date                             : UTC 2023-01-06 10:13:14
  472. Tagged date                              : UTC 2023-01-06 10:13:16
  473. Text #31
  474. ID                                       : 33
  475. Format                                   : Timed Text
  476. Codec ID                                 : tx3g
  477. Duration                                 : 2 h 2 min
  478. Bit rate mode                            : Variable
  479. Bit rate                                 : 56 b/s
  480. Frame rate                               : 0.439 FPS
  481. Stream size                              : 50.0 KiB (0%)
  482. Title                                    : Spanish-Basque
  483. Language                                 : Basque
  484. Forced                                   : No
  485. Encoded date                             : UTC 2023-01-06 10:13:14
  486. Tagged date                              : UTC 2023-01-06 10:13:16
  487. Text #32
  488. ID                                       : 34
  489. Format                                   : Timed Text
  490. Codec ID                                 : tx3g
  491. Duration                                 : 2 h 2 min
  492. Bit rate mode                            : Variable
  493. Bit rate                                 : 57 b/s
  494. Frame rate                               : 0.433 FPS
  495. Stream size                              : 51.6 KiB (0%)
  496. Title                                    : Spanish-Catalan
  497. Language                                 : Catalan
  498. Forced                                   : No
  499. Encoded date                             : UTC 2023-01-06 10:13:15
  500. Tagged date                              : UTC 2023-01-06 10:13:16
  501. Text #33
  502. ID                                       : 35
  503. Format                                   : Timed Text
  504. Codec ID                                 : tx3g
  505. Duration                                 : 2 h 2 min
  506. Bit rate mode                            : Variable
  507. Bit rate                                 : 60 b/s
  508. Frame rate                               : 0.441 FPS
  509. Stream size                              : 54.3 KiB (0%)
  510. Title                                    : Spanish-EU
  511. Language                                 : Spanish
  512. Forced                                   : No
  513. Encoded date                             : UTC 2023-01-06 10:13:15
  514. Tagged date                              : UTC 2023-01-06 10:13:16
  515. Text #34
  516. ID                                       : 36
  517. Format                                   : Timed Text
  518. Codec ID                                 : tx3g
  519. Duration                                 : 2 h 2 min
  520. Bit rate mode                            : Variable
  521. Bit rate                                 : 59 b/s
  522. Frame rate                               : 0.431 FPS
  523. Stream size                              : 52.7 KiB (0%)
  524. Title                                    : Spanish-EU
  525. Language                                 : Spanish
  526. Forced                                   : No
  527. Encoded date                             : UTC 2023-01-06 10:13:15
  528. Tagged date                              : UTC 2023-01-06 10:13:16
  529. Text #35
  530. ID                                       : 37
  531. Format                                   : Timed Text
  532. Codec ID                                 : tx3g
  533. Duration                                 : 2 h 2 min
  534. Bit rate mode                            : Variable
  535. Bit rate                                 : 76 b/s
  536. Frame rate                               : 0.537 FPS
  537. Stream size                              : 68.0 KiB (0%)
  538. Title                                    : Spanish-EU
  539. Language                                 : Spanish
  540. Forced                                   : No
  541. Encoded date                             : UTC 2023-01-06 10:13:15
  542. Tagged date                              : UTC 2023-01-06 10:13:16
  543. Text #36
  544. ID                                       : 38
  545. Format                                   : Timed Text
  546. Codec ID                                 : tx3g
  547. Duration                                 : 2 h 2 min
  548. Bit rate mode                            : Variable
  549. Bit rate                                 : 54 b/s
  550. Frame rate                               : 0.437 FPS
  551. Stream size                              : 48.1 KiB (0%)
  552. Title                                    : Spanish-Galician
  553. Language                                 : Galician
  554. Forced                                   : No
  555. Encoded date                             : UTC 2023-01-06 10:13:15
  556. Tagged date                              : UTC 2023-01-06 10:13:16
  557. Text #37
  558. ID                                       : 39
  559. Format                                   : Timed Text
  560. Codec ID                                 : tx3g
  561. Duration                                 : 2 h 2 min
  562. Bit rate mode                            : Variable
  563. Bit rate                                 : 55 b/s
  564. Frame rate                               : 0.374 FPS
  565. Stream size                              : 49.2 KiB (0%)
  566. Title                                    : Swedish
  567. Language                                 : Swedish
  568. Forced                                   : No
  569. Encoded date                             : UTC 2023-01-06 10:13:15
  570. Tagged date                              : UTC 2023-01-06 10:13:16
  571. Text #38
  572. ID                                       : 40
  573. Format                                   : Timed Text
  574. Codec ID                                 : tx3g
  575. Duration                                 : 2 h 2 min
  576. Bit rate mode                            : Variable
  577. Bit rate                                 : 163 b/s
  578. Frame rate                               : 0.443 FPS
  579. Stream size                              : 147 KiB (0%)
  580. Title                                    : Thai
  581. Language                                 : Thai
  582. Forced                                   : No
  583. Encoded date                             : UTC 2023-01-06 10:13:15
  584. Tagged date                              : UTC 2023-01-06 10:13:16
  585. Text #39
  586. ID                                       : 41
  587. Format                                   : Timed Text
  588. Codec ID                                 : tx3g
  589. Duration                                 : 2 h 2 min
  590. Bit rate mode                            : Variable
  591. Bit rate                                 : 58 b/s
  592. Frame rate                               : 0.432 FPS
  593. Stream size                              : 51.8 KiB (0%)
  594. Title                                    : Turkish
  595. Language                                 : Turkish
  596. Forced                                   : No
  597. Encoded date                             : UTC 2023-01-06 10:13:15
  598. Tagged date                              : UTC 2023-01-06 10:13:16
  599. Text #40
  600. ID                                       : 42
  601. Format                                   : Timed Text
  602. Codec ID                                 : tx3g
  603. Duration                                 : 2 h 2 min
  604. Bit rate mode                            : Variable
  605. Bit rate                                 : 86 b/s
  606. Frame rate                               : 0.430 FPS
  607. Stream size                              : 77.3 KiB (0%)
  608. Title                                    : Ukrainian
  609. Language                                 : Ukrainian
  610. Forced                                   : No
  611. Encoded date                             : UTC 2023-01-06 10:13:15
  612. Tagged date                              : UTC 2023-01-06 10:13:16
  613. Text #41
  614. ID                                       : 43
  615. Format                                   : Timed Text
  616. Codec ID                                 : tx3g
  617. Duration                                 : 2 h 2 min
  618. Bit rate mode                            : Variable
  619. Bit rate                                 : 82 b/s
  620. Frame rate                               : 0.428 FPS
  621. Stream size                              : 73.9 KiB (0%)
  622. Title                                    : Vietnamese
  623. Language                                 : Vietnamese
  624. Forced                                   : No
  625. Encoded date                             : UTC 2023-01-06 10:13:16
  626. Tagged date                              : UTC 2023-01-06 10:13:16
复制代码











Purple.Hearts.2022.2160p.NF.WEB-DL.DDP5.1.Atmos.DV.MP4.x265-DVSUX.torrent (18.89 KB, 下载次数: 6)
回复

使用道具 举报

懒得打字嘛,点击右侧快捷回复 【右侧内容,后台自定义】
您需要登录后才可以回帖 登录 | 立即注册

本版积分规则

Archiver|手机版|小黑屋| 中国高清网 |网站地图 

GMT+8, 2023-1-30 00:02 , Processed in 0.143405 second(s), 26 queries .

Powered by HDchina X3.4

Copyright 2017-2019©HDchina.All right reserved

返回顶部 联系我们