查看: 125|回复: 0

[2160p-WEB] 死亡笔记[中文字幕].Death.Note.2017.2160p.NF.WEB-DL.DDP5.1.Atmos.DV.MKV.x265-XEBEC 14.00GB

[复制链接]
蓝光币
78 枚
发表于 2023-1-19 19:36:18 | 显示全部楼层 |阅读模式


◎标  题 灭亡笔记
◎译  名 灭亡笔记真人版 / 灭亡笔记美国版
◎片  名 Death Note
◎年  代 2017
◎产  地 美国
◎类  别 剧情 / 悬疑 / 惊悚 / 犯罪
◎语  言 英语
◎上映日期 2017-08-25(美国)
◎IMDb评分 4.4/10 (81710人评价)
◎IMDb链接 https://www.imdb.com/title/tt1241317/
◎豆瓣评分 4.2/10 (7298人评价)
◎豆瓣链接 https://movie.douban.com/subject/5920220/
◎片  长 101分钟
◎导  演 亚当·温加德 Adam Wingard
◎编  剧 查理·帕拉伯尼得斯 Charley Parlapanides
       维拉斯·帕拉伯尼得斯 Vlas Parlapanides
       杰瑞米·斯莱特 Jeremy Slater
       大场鸫 Tsugumi Ohba
       小畑健 Takeshi Obata
◎演  员 纳特·沃尔夫 Nat Wolff
       勒凯斯·斯坦菲尔德 Lakeith Stanfield
       玛格丽特·库里 Margaret Qualley
       谢伊·惠格姆 Shea Whigham
       威廉·达福 Willem Dafoe
       杰森·莱尔斯 Jason Liles
       保罗·纳高奇 Paul Nakauchi
       杰克·埃特林格 Jack Ettlinger
       马修·凯文·安德森 Matthew Kevin Anderson
       克里斯·布里顿 Chris Britton
       科维西·阿梅扬 Kwesi Ameyaw
       贾斯汀·斯通 Justin Stone
       克里斯蒂安·斯隆 Christian Sloan
       阿汀·约翰 Artin John
       大卫·S·郑 David S. Jung
       杰西卡·麦丽奥德 Jessica McLeod
       保罗·麦克吉莱恩 Paul McGillion
       迈克尔·肖姆斯·维尔斯 Michael Shamus Wiles
       道恩·楚拜 Dawn Chubai
       特伦特·雷诺 Trent Reznor
◎标  签 美国 / 灭亡笔记 / 漫画改编 / 悬疑 / 翻拍 / 2017 / 惊悚 / 奇异
◎简  介
  凭仗《纸上城市》(Paper Towns)而展露头脚的新人纳特·沃尔夫(Nat Wolff)比来正洽商主演可骇片《灭亡笔记》(Death Note),该片由华纳兄弟公司出品,按照同名热门日本漫画改编。                                       
                                    《灭亡笔记》为大场鸫(Tsugumi Ohba)创作、小畑健(Takeshi Obata)绘画,是一套于2003年12月至2006年5月连载于集英社《周刊少年Jump》的心理悬疑推理漫画。故事配角是一个高中生,他无意中捡到了一个笔记本,发现自己只要把一小我的名字写在笔记本上,那小我就会立即死去。                                       
                                    这名高中生制造的一系列奥秘灭亡事务引发了一位侦察的留意,他起头追踪凶手,并试图解开工作的真相。                                       
                                    《灭亡笔记》在日本曾被改编成一套动画电视剧、两部真人电影和一套视频游戏。华纳几年前就买下了美版电影的版权,直到今年头才定下让《不速之客》(The Guest)的导演...
  1. Video
  2. ID                                       : 1
  3. Format                                   : HEVC
  4. Format/Info                              : High Efficiency Video Coding
  5. Format profile                           : Main [email protected]@Main
  6. HDR format                               : Dolby Vision, Version 1.0, dvhe.05.06, BL+RPU
  7. Codec ID                                 : V_MPEGH/ISO/HEVC
  8. Duration                                 : 1 h 40 min
  9. Bit rate                                 : 19.2 Mb/s
  10. Width                                    : 3 840 pixels
  11. Height                                   : 2 160 pixels
  12. Display aspect ratio                     : 16:9
  13. Frame rate mode                          : Constant
  14. Frame rate                               : 23.976 (24000/1001) FPS
  15. Color space                              : YUV
  16. Chroma subsampling                       : 4:2:0
  17. Bit depth                                : 10 bits
  18. Bits/(Pixel*Frame)                       : 0.097
  19. Stream size                              : 13.5 GiB (96%)
  20. Default                                  : Yes
  21. Forced                                   : No
  22. Color range                              : Full
  23. Audio
  24. ID                                       : 2
  25. Format                                   : E-AC-3 JOC
  26. Format/Info                              : Enhanced AC-3 with Joint Object Coding
  27. Commercial name                          : Dolby Digital Plus with Dolby Atmos
  28. Codec ID                                 : A_EAC3
  29. Duration                                 : 1 h 40 min
  30. Bit rate mode                            : Constant
  31. Bit rate                                 : 768 kb/s
  32. Channel(s)                               : 6 channels
  33. Channel layout                           : L R C LFE Ls Rs
  34. Sampling rate                            : 48.0 kHz
  35. Frame rate                               : 31.250 FPS (1536 SPF)
  36. Compression mode                         : Lossy
  37. Stream size                              : 551 MiB (4%)
  38. Title                                    : English
  39. Language                                 : English
  40. Service kind                             : Complete Main
  41. Default                                  : Yes
  42. Forced                                   : No
  43. Complexity index                         : 16
  44. Number of dynamic objects                : 15
  45. Bed channel count                        : 1 channel
  46. Bed channel configuration                : LFE
  47. Text #1
  48. ID                                       : 3
  49. Format                                   : UTF-8
  50. Codec ID                                 : S_TEXT/UTF8
  51. Codec ID/Info                            : UTF-8 Plain Text
  52. Duration                                 : 2 min 11 s
  53. Bit rate                                 : 44 b/s
  54. Frame rate                               : 0.129 FPS
  55. Count of elements                        : 17
  56. Stream size                              : 737 Bytes (0%)
  57. Title                                    : English (Forced)
  58. Language                                 : English
  59. Default                                  : Yes
  60. Forced                                   : Yes
  61. Text #2
  62. ID                                       : 4
  63. Format                                   : UTF-8
  64. Codec ID                                 : S_TEXT/UTF8
  65. Codec ID/Info                            : UTF-8 Plain Text
  66. Duration                                 : 1 h 39 min
  67. Bit rate                                 : 86 b/s
  68. Frame rate                               : 0.182 FPS
  69. Count of elements                        : 1085
  70. Stream size                              : 63.1 KiB (0%)
  71. Title                                    : Arabic
  72. Language                                 : Arabic
  73. Default                                  : No
  74. Forced                                   : No
  75. Text #3
  76. ID                                       : 5
  77. Format                                   : UTF-8
  78. Codec ID                                 : S_TEXT/UTF8
  79. Codec ID/Info                            : UTF-8 Plain Text
  80. Duration                                 : 1 h 39 min
  81. Bit rate                                 : 46 b/s
  82. Frame rate                               : 0.174 FPS
  83. Count of elements                        : 1040
  84. Stream size                              : 33.9 KiB (0%)
  85. Title                                    : Danish
  86. Language                                 : Danish
  87. Default                                  : No
  88. Forced                                   : No
  89. Text #4
  90. ID                                       : 6
  91. Format                                   : UTF-8
  92. Codec ID                                 : S_TEXT/UTF8
  93. Codec ID/Info                            : UTF-8 Plain Text
  94. Duration                                 : 1 h 39 min
  95. Bit rate                                 : 46 b/s
  96. Frame rate                               : 0.168 FPS
  97. Count of elements                        : 1001
  98. Stream size                              : 34.1 KiB (0%)
  99. Title                                    : German
  100. Language                                 : German
  101. Default                                  : No
  102. Forced                                   : No
  103. Text #5
  104. ID                                       : 7
  105. Format                                   : UTF-8
  106. Codec ID                                 : S_TEXT/UTF8
  107. Codec ID/Info                            : UTF-8 Plain Text
  108. Duration                                 : 1 h 34 min
  109. Bit rate                                 : 88 b/s
  110. Frame rate                               : 0.198 FPS
  111. Count of elements                        : 1119
  112. Stream size                              : 61.3 KiB (0%)
  113. Title                                    : Modern Greek (1453-)
  114. Language                                 : Greek
  115. Default                                  : No
  116. Forced                                   : No
  117. Text #6
  118. ID                                       : 8
  119. Format                                   : UTF-8
  120. Codec ID                                 : S_TEXT/UTF8
  121. Codec ID/Info                            : UTF-8 Plain Text
  122. Duration                                 : 1 h 39 min
  123. Bit rate                                 : 64 b/s
  124. Frame rate                               : 0.212 FPS
  125. Count of elements                        : 1267
  126. Stream size                              : 47.0 KiB (0%)
  127. Title                                    : English (SDH)
  128. Language                                 : English
  129. Default                                  : No
  130. Forced                                   : No
  131. Text #7
  132. ID                                       : 9
  133. Format                                   : UTF-8
  134. Codec ID                                 : S_TEXT/UTF8
  135. Codec ID/Info                            : UTF-8 Plain Text
  136. Duration                                 : 1 h 32 min
  137. Bit rate                                 : 47 b/s
  138. Frame rate                               : 0.189 FPS
  139. Count of elements                        : 1053
  140. Stream size                              : 32.5 KiB (0%)
  141. Title                                    : Spanish
  142. Language                                 : Spanish
  143. Default                                  : No
  144. Forced                                   : No
  145. Text #8
  146. ID                                       : 10
  147. Format                                   : UTF-8
  148. Codec ID                                 : S_TEXT/UTF8
  149. Codec ID/Info                            : UTF-8 Plain Text
  150. Duration                                 : 1 h 39 min
  151. Bit rate                                 : 51 b/s
  152. Frame rate                               : 0.178 FPS
  153. Count of elements                        : 1060
  154. Stream size                              : 37.7 KiB (0%)
  155. Title                                    : Spanish
  156. Language                                 : Spanish
  157. Default                                  : No
  158. Forced                                   : No
  159. Text #9
  160. ID                                       : 11
  161. Format                                   : UTF-8
  162. Codec ID                                 : S_TEXT/UTF8
  163. Codec ID/Info                            : UTF-8 Plain Text
  164. Duration                                 : 1 h 39 min
  165. Bit rate                                 : 43 b/s
  166. Frame rate                               : 0.154 FPS
  167. Count of elements                        : 921
  168. Stream size                              : 31.9 KiB (0%)
  169. Title                                    : Finnish
  170. Language                                 : Finnish
  171. Default                                  : No
  172. Forced                                   : No
  173. Text #10
  174. ID                                       : 12
  175. Format                                   : UTF-8
  176. Codec ID                                 : S_TEXT/UTF8
  177. Codec ID/Info                            : UTF-8 Plain Text
  178. Duration                                 : 1 h 39 min
  179. Bit rate                                 : 47 b/s
  180. Frame rate                               : 0.173 FPS
  181. Count of elements                        : 1033
  182. Stream size                              : 34.3 KiB (0%)
  183. Title                                    : French
  184. Language                                 : French
  185. Default                                  : No
  186. Forced                                   : No
  187. Text #11
  188. ID                                       : 13
  189. Format                                   : UTF-8
  190. Codec ID                                 : S_TEXT/UTF8
  191. Codec ID/Info                            : UTF-8 Plain Text
  192. Duration                                 : 1 h 34 min
  193. Bit rate                                 : 78 b/s
  194. Frame rate                               : 0.190 FPS
  195. Count of elements                        : 1070
  196. Stream size                              : 54.3 KiB (0%)
  197. Title                                    : Hebrew
  198. Language                                 : Hebrew
  199. Default                                  : No
  200. Forced                                   : No
  201. Text #12
  202. ID                                       : 14
  203. Format                                   : UTF-8
  204. Codec ID                                 : S_TEXT/UTF8
  205. Codec ID/Info                            : UTF-8 Plain Text
  206. Duration                                 : 1 h 39 min
  207. Bit rate                                 : 48 b/s
  208. Frame rate                               : 0.175 FPS
  209. Count of elements                        : 1043
  210. Stream size                              : 35.6 KiB (0%)
  211. Title                                    : Italian
  212. Language                                 : Italian
  213. Default                                  : No
  214. Forced                                   : No
  215. Text #13
  216. ID                                       : 15
  217. Format                                   : UTF-8
  218. Codec ID                                 : S_TEXT/UTF8
  219. Codec ID/Info                            : UTF-8 Plain Text
  220. Duration                                 : 1 h 39 min
  221. Bit rate                                 : 43 b/s
  222. Frame rate                               : 0.168 FPS
  223. Count of elements                        : 1003
  224. Stream size                              : 31.6 KiB (0%)
  225. Title                                    : Japanese
  226. Language                                 : Japanese
  227. Default                                  : No
  228. Forced                                   : No
  229. Text #14
  230. ID                                       : 16
  231. Format                                   : UTF-8
  232. Codec ID                                 : S_TEXT/UTF8
  233. Codec ID/Info                            : UTF-8 Plain Text
  234. Duration                                 : 1 h 39 min
  235. Bit rate                                 : 54 b/s
  236. Frame rate                               : 0.181 FPS
  237. Count of elements                        : 1079
  238. Stream size                              : 39.6 KiB (0%)
  239. Title                                    : Korean
  240. Language                                 : Korean
  241. Default                                  : No
  242. Forced                                   : No
  243. Text #15
  244. ID                                       : 17
  245. Format                                   : UTF-8
  246. Codec ID                                 : S_TEXT/UTF8
  247. Codec ID/Info                            : UTF-8 Plain Text
  248. Duration                                 : 1 h 39 min
  249. Bit rate                                 : 42 b/s
  250. Frame rate                               : 0.165 FPS
  251. Count of elements                        : 987
  252. Stream size                              : 31.3 KiB (0%)
  253. Title                                    : Norwegian Bokm?l
  254. Language                                 : Norwegian Bokmal
  255. Default                                  : No
  256. Forced                                   : No
  257. Text #16
  258. ID                                       : 18
  259. Format                                   : UTF-8
  260. Codec ID                                 : S_TEXT/UTF8
  261. Codec ID/Info                            : UTF-8 Plain Text
  262. Duration                                 : 1 h 39 min
  263. Bit rate                                 : 46 b/s
  264. Frame rate                               : 0.157 FPS
  265. Count of elements                        : 938
  266. Stream size                              : 34.0 KiB (0%)
  267. Title                                    : Dutch
  268. Language                                 : Dutch
  269. Default                                  : No
  270. Forced                                   : No
  271. Text #17
  272. ID                                       : 19
  273. Format                                   : UTF-8
  274. Codec ID                                 : S_TEXT/UTF8
  275. Codec ID/Info                            : UTF-8 Plain Text
  276. Duration                                 : 1 h 39 min
  277. Bit rate                                 : 44 b/s
  278. Frame rate                               : 0.172 FPS
  279. Count of elements                        : 1028
  280. Stream size                              : 32.1 KiB (0%)
  281. Title                                    : Polish
  282. Language                                 : Polish
  283. Default                                  : No
  284. Forced                                   : No
  285. Text #18
  286. ID                                       : 20
  287. Format                                   : UTF-8
  288. Codec ID                                 : S_TEXT/UTF8
  289. Codec ID/Info                            : UTF-8 Plain Text
  290. Duration                                 : 1 h 39 min
  291. Bit rate                                 : 51 b/s
  292. Frame rate                               : 0.178 FPS
  293. Count of elements                        : 1063
  294. Stream size                              : 37.6 KiB (0%)
  295. Title                                    : Portuguese
  296. Language                                 : Portuguese
  297. Default                                  : No
  298. Forced                                   : No
  299. Text #19
  300. ID                                       : 21
  301. Format                                   : UTF-8
  302. Codec ID                                 : S_TEXT/UTF8
  303. Codec ID/Info                            : UTF-8 Plain Text
  304. Duration                                 : 1 h 39 min
  305. Bit rate                                 : 51 b/s
  306. Frame rate                               : 0.177 FPS
  307. Count of elements                        : 1054
  308. Stream size                              : 37.5 KiB (0%)
  309. Title                                    : Portuguese
  310. Language                                 : Portuguese
  311. Default                                  : No
  312. Forced                                   : No
  313. Text #20
  314. ID                                       : 22
  315. Format                                   : UTF-8
  316. Codec ID                                 : S_TEXT/UTF8
  317. Codec ID/Info                            : UTF-8 Plain Text
  318. Duration                                 : 1 h 39 min
  319. Bit rate                                 : 51 b/s
  320. Frame rate                               : 0.177 FPS
  321. Count of elements                        : 1059
  322. Stream size                              : 37.7 KiB (0%)
  323. Title                                    : Romanian
  324. Language                                 : Romanian
  325. Default                                  : No
  326. Forced                                   : No
  327. Text #21
  328. ID                                       : 23
  329. Format                                   : UTF-8
  330. Codec ID                                 : S_TEXT/UTF8
  331. Codec ID/Info                            : UTF-8 Plain Text
  332. Duration                                 : 1 h 32 min
  333. Bit rate                                 : 83 b/s
  334. Frame rate                               : 0.190 FPS
  335. Count of elements                        : 1058
  336. Stream size                              : 56.6 KiB (0%)
  337. Title                                    : Russian
  338. Language                                 : Russian
  339. Default                                  : No
  340. Forced                                   : No
  341. Text #22
  342. ID                                       : 24
  343. Format                                   : UTF-8
  344. Codec ID                                 : S_TEXT/UTF8
  345. Codec ID/Info                            : UTF-8 Plain Text
  346. Duration                                 : 1 h 39 min
  347. Bit rate                                 : 48 b/s
  348. Frame rate                               : 0.168 FPS
  349. Count of elements                        : 1002
  350. Stream size                              : 35.1 KiB (0%)
  351. Title                                    : Swedish
  352. Language                                 : Swedish
  353. Default                                  : No
  354. Forced                                   : No
  355. Text #23
  356. ID                                       : 25
  357. Format                                   : UTF-8
  358. Codec ID                                 : S_TEXT/UTF8
  359. Codec ID/Info                            : UTF-8 Plain Text
  360. Duration                                 : 1 h 39 min
  361. Bit rate                                 : 119 b/s
  362. Frame rate                               : 0.180 FPS
  363. Count of elements                        : 1075
  364. Stream size                              : 87.3 KiB (0%)
  365. Title                                    : Thai
  366. Language                                 : Thai
  367. Default                                  : No
  368. Forced                                   : No
  369. Text #24
  370. ID                                       : 26
  371. Format                                   : UTF-8
  372. Codec ID                                 : S_TEXT/UTF8
  373. Codec ID/Info                            : UTF-8 Plain Text
  374. Duration                                 : 1 h 39 min
  375. Bit rate                                 : 54 b/s
  376. Frame rate                               : 0.175 FPS
  377. Count of elements                        : 1046
  378. Stream size                              : 40.1 KiB (0%)
  379. Title                                    : Turkish
  380. Language                                 : Turkish
  381. Default                                  : No
  382. Forced                                   : No
  383. Text #25
  384. ID                                       : 27
  385. Format                                   : UTF-8
  386. Codec ID                                 : S_TEXT/UTF8
  387. Codec ID/Info                            : UTF-8 Plain Text
  388. Duration                                 : 1 h 39 min
  389. Bit rate                                 : 68 b/s
  390. Frame rate                               : 0.180 FPS
  391. Count of elements                        : 1073
  392. Stream size                              : 49.6 KiB (0%)
  393. Title                                    : Vietnamese
  394. Language                                 : Vietnamese
  395. Default                                  : No
  396. Forced                                   : No
  397. Text #26
  398. ID                                       : 28
  399. Format                                   : UTF-8
  400. Codec ID                                 : S_TEXT/UTF8
  401. Codec ID/Info                            : UTF-8 Plain Text
  402. Duration                                 : 1 h 39 min
  403. Bit rate                                 : 51 b/s
  404. Frame rate                               : 0.180 FPS
  405. Count of elements                        : 1073
  406. Stream size                              : 37.8 KiB (0%)
  407. Title                                    : Simplified, Chinese
  408. Language                                 : Chinese
  409. Default                                  : No
  410. Forced                                   : No
  411. Text #27
  412. ID                                       : 29
  413. Format                                   : UTF-8
  414. Codec ID                                 : S_TEXT/UTF8
  415. Codec ID/Info                            : UTF-8 Plain Text
  416. Duration                                 : 1 h 39 min
  417. Bit rate                                 : 51 b/s
  418. Frame rate                               : 0.181 FPS
  419. Count of elements                        : 1078
  420. Stream size                              : 37.9 KiB (0%)
  421. Title                                    : Traditional, Chinese
  422. Language                                 : Chinese
  423. Default                                  : No
  424. Forced                                   : No
  425. Menu
  426. 00:00:00.000                             : en:Part 01
  427. 01:34:25.450                             : en:Credits
复制代码











Death.Note.2017.2160p.NF.WEB-DL.DDP5.1.Atmos.DV.MKV.x265-XEBEC.torrent (18.16 KB, 下载次数: 7)
回复

使用道具 举报

懒得打字嘛,点击右侧快捷回复 【右侧内容,后台自定义】
您需要登录后才可以回帖 登录 | 立即注册

本版积分规则

Archiver|手机版|小黑屋| 中国高清网 |网站地图 

GMT+8, 2023-1-30 00:27 , Processed in 0.129010 second(s), 26 queries .

Powered by HDchina X3.4

Copyright 2017-2019©HDchina.All right reserved

返回顶部 联系我们