查看: 87|回复: 0

[2160p-WEB] 西雅图未眠夜.Sleepless.In.Seattle.1993.2160p.WEB-DL.x265.8bit.SDR.DTS-HD.MA.5.1-NOGRP 13.94GB

[复制链接]
蓝光币
78 枚
发表于 2023-1-19 19:36:15 | 显示全部楼层 |阅读模式


◎标  题 西雅图未眠夜
◎译  名 缘份的天空(港) / 西雅图夜未眠(台) / 西雅图不眠夜
◎片  名 Sleepless in Seattle
◎年  代 1993
◎产  地 美国
◎类  别 剧情 / 笑剧 / 恋爱
◎语  言 英语
◎上映日期 1993-06-25(美国)
◎IMDb评分 6.8/10 (178826人评价)
◎IMDb链接 https://www.imdb.com/title/tt0108160/
◎豆瓣评分 7.9/10 (225865人评价)
◎豆瓣链接 https://movie.douban.com/subject/1298128/
◎片  长 105分钟
◎导  演 诺拉·艾芙隆 Nora Ephron
◎编  剧 诺拉·艾芙隆 Nora Ephron
       杰夫·阿奇 Jeff Arch
       大卫·S·瓦德 David S. Ward
◎演  员 汤姆·汉克斯 Tom Hanks
       梅格·瑞恩 Meg Ryan
       罗斯·马林格 Ross Malinger
       丽塔·威尔逊 Rita Wilson
       维克多·加博 Victor Garber
       汤姆·里斯·法雷尔 Tom Riis Farrell
       凯莉·洛维 Carey Lowell
       比尔·普尔曼 Bill Pullman
       勒克朗谢·迪兰德 Le Clanché du Rand
       凯文·欧莫里森 Kevin O'Morrison
       戴维·海德·皮尔斯 David Hyde Pierce
       瓦莱丽·赖特 Valerie Wright
       弗兰西丝·康罗伊 Frances Conroy
       汤姆·塔米 Tom Tammi
       卡尔文·特里林 Calvin Trillin
       卡罗琳·阿隆 Caroline Aaron
       琳达·瓦勒姆 Linda Wallem
       拉塔尼娅·理查德森 LaTanya Richardson
       罗茜·欧唐内 Rosie O'Donnell
       汤姆·麦高恩 Tom McGowan
       史蒂夫·梅勒 Steve Mellor
       丹娜·爱薇 Dana Ivey
       布莱恩·麦克康纳契 Brian McConnachie
       罗伯·莱纳 Rob Reiner
       盖比·霍夫曼 Gaby Hoffmann
       阿曼达·马厄 Amanda Maher
       芭芭拉·加里克 Barbara Garrick
       约翰·博伊兰 John Boylan
       Jason Bortz Jason Bortz
       Philip Anagnos Philip Anagnos
       尼克·泰勒 Nick Taylor
       克里斯·伯恩 Chris Byrne
       Sidney Armus Sidney Armus
       迈克尔·巴达鲁科 Michael Badalucco
       斯考特达西 Scott Duthie
◎简  介
    自从妻子归天后,萨姆(汤姆·汉克斯 Tom Hanks饰)就相信自己今生的爱已经走到了绝顶,不会再有新的爱情走进心中,他在西雅图和儿子乔纳一路安静的生活。而乔纳,却一向希望爸爸可以起头新的婚姻,重获生活的阳光。                                                                      抱着这样的想法,乔纳在圣诞夜打电话到电台的感情热线。就这样,萨姆的履历在此夜传遍了各个角落,很多人在倾听他的故事,其中包括安妮(梅格·瑞安 Meg Ryan饰)——一个住在东部的女记者。她善良,温柔,有一个贴心的好友,和一个行将成婚的男友。但是,幸运的生活就被这个电话完全打破了。她的心里有一种感动,让她一步步地接近这个远在西部的汉子。                                                                      但是,一次次辗转的错过让萨姆和安妮迟迟不能会面。屡次在缘份的天空下失诸交臂的二人,一向为爱而奔走,期待一个碰见的机遇。
  1. Video
  2. ID                                       : 1
  3. Format                                   : HEVC
  4. Format/Info                              : High Efficiency Video Coding
  5. Format profile                           : [email protected]@High
  6. Codec ID                                 : V_MPEGH/ISO/HEVC
  7. Duration                                 : 1 h 45 min
  8. Bit rate                                 : 15.0 Mb/s
  9. Width                                    : 3 840 pixels
  10. Height                                   : 2 160 pixels
  11. Display aspect ratio                     : 16:9
  12. Frame rate mode                          : Constant
  13. Frame rate                               : 23.976 (24000/1001) FPS
  14. Color space                              : YUV
  15. Chroma subsampling                       : 4:2:0
  16. Bit depth                                : 8 bits
  17. Bits/(Pixel*Frame)                       : 0.075
  18. Stream size                              : 11.0 GiB (79%)
  19. Default                                  : Yes
  20. Forced                                   : No
  21. Color range                              : Limited
  22. Color primaries                          : BT.709
  23. Transfer characteristics                 : BT.709
  24. Matrix coefficients                      : BT.709
  25. Audio #1
  26. ID                                       : 2
  27. Format                                   : DTS XLL
  28. Format/Info                              : Digital Theater Systems
  29. Commercial name                          : DTS-HD Master Audio
  30. Codec ID                                 : A_DTS
  31. Duration                                 : 1 h 45 min
  32. Bit rate mode                            : Variable
  33. Bit rate                                 : 3 562 kb/s
  34. Channel(s)                               : 6 channels
  35. Channel layout                           : C L R Ls Rs LFE
  36. Sampling rate                            : 48.0 kHz
  37. Frame rate                               : 93.750 FPS (512 SPF)
  38. Bit depth                                : 24 bits
  39. Compression mode                         : Lossless
  40. Delay relative to video                  : 1 s 0 ms
  41. Stream size                              : 2.61 GiB (19%)
  42. Title                                    : English
  43. Language                                 : English
  44. Default                                  : Yes
  45. Forced                                   : No
  46. Audio #2
  47. ID                                       : 3
  48. Format                                   : AAC LC
  49. Format/Info                              : Advanced Audio Codec Low Complexity
  50. Codec ID                                 : A_AAC-2
  51. Duration                                 : 1 h 45 min
  52. Bit rate                                 : 445 kb/s
  53. Channel(s)                               : 6 channels
  54. Channel layout                           : C L R Ls Rs LFE
  55. Sampling rate                            : 48.0 kHz
  56. Frame rate                               : 46.875 FPS (1024 SPF)
  57. Compression mode                         : Lossy
  58. Stream size                              : 335 MiB (2%)
  59. Language                                 : English
  60. Default                                  : No
  61. Forced                                   : No
  62. Text #1
  63. ID                                       : 4
  64. Format                                   : UTF-8
  65. Codec ID                                 : S_TEXT/UTF8
  66. Codec ID/Info                            : UTF-8 Plain Text
  67. Duration                                 : 1 h 40 min
  68. Bit rate                                 : 66 b/s
  69. Frame rate                               : 0.301 FPS
  70. Count of elements                        : 1818
  71. Stream size                              : 49.1 KiB (0%)
  72. Language                                 : English
  73. Default                                  : Yes
  74. Forced                                   : No
  75. Text #2
  76. ID                                       : 5
  77. Format                                   : PGS
  78. Muxing mode                              : zlib
  79. Codec ID                                 : S_HDMV/PGS
  80. Codec ID/Info                            : Picture based subtitle format used on BDs/HD-DVDs
  81. Duration                                 : 1 h 44 min
  82. Bit rate                                 : 48.3 kb/s
  83. Frame rate                               : 0.575 FPS
  84. Count of elements                        : 3598
  85. Stream size                              : 36.0 MiB (0%)
  86. Language                                 : English
  87. Default                                  : No
  88. Forced                                   : No
  89. Menu
  90. 00:00:00.000                             : en:Chapter 01
  91. 00:05:20.904                             : en:Chapter 02
  92. 00:12:44.639                             : en:Chapter 03
  93. 00:21:49.850                             : en:Chapter 04
  94. 00:34:12.842                             : en:Chapter 05
  95. 00:47:21.756                             : en:Chapter 06
  96. 00:54:56.752                             : en:Chapter 07
  97. 01:02:55.689                             : en:Chapter 08
  98. 01:09:51.854                             : en:Chapter 09
  99. 01:18:24.241                             : en:Chapter 10
  100. 01:25:55.275                             : en:Chapter 11
  101. 01:41:15.403                             : en:Chapter 12
复制代码











Sleepless.In.Seattle.1993.2160p.WEB-DL.x265.8bit.SDR.DTS-HD.MA.5.1-NOGRP.torrent (18.1 KB, 下载次数: 0)
回复

使用道具 举报

懒得打字嘛,点击右侧快捷回复 【右侧内容,后台自定义】
您需要登录后才可以回帖 登录 | 立即注册

本版积分规则

Archiver|手机版|小黑屋| 中国高清网 |网站地图 

GMT+8, 2023-1-29 23:38 , Processed in 0.098082 second(s), 26 queries .

Powered by HDchina X3.4

Copyright 2017-2019©HDchina.All right reserved

返回顶部 联系我们