查看: 77|回复: 0

[2160p-WEB] 红眼航班.Red.Eye.2005.2160p.WEB-DL.x265.10bit.HDR.DTS-HD.MA.5.1-NOGRP 11.06GB

[复制链接]
蓝光币
78 枚
发表于 2023-1-19 19:36:15 | 显示全部楼层 |阅读模式


◎标  题 红眼航班
◎译  名 红眼 / 远程吓机 / 赤眼玄机
◎片  名 Red Eye
◎年  代 2005
◎产  地 美国
◎类  别 惊悚
◎语  言 英语 / 俄语
◎上映日期 2005-08-19(美国)
◎IMDb评分 6.5/10 (124341人评价)
◎IMDb链接 https://www.imdb.com/title/tt0421239/
◎豆瓣评分 6.8/10 (21295人评价)
◎豆瓣链接 https://movie.douban.com/subject/1309051/
◎片  长 85分钟
◎导  演 韦斯·克雷文 Wes Craven
◎编  剧 卡尔·埃尔斯沃斯 Carl Ellsworth
       Dan Foos Dan Foos
◎演  员 瑞秋·麦克亚当斯 Rachel McAdams
       基里安·墨菲 Cillian Murphy
       布莱恩·考克斯 Brian Cox
       杰玛·梅斯 Jayma Mays
       杰克·斯卡利亚 Jack Scalia
       考比·唐纳森 Colby Donaldson
       罗伯特·派恩 Robert Pine
       安吉拉·佩顿 Angela Paton
       劳拉·约翰逊 Laura Johnson
       罗伦·莱斯特 Loren Lester
       马科斯·卡锡 Max Kasch
       菲利普·帕维尔 Philip Pavel
       凯尔·加尔纳 Kyle Gallner
       布列塔尼·奥克斯 Brittany Oaks
       苏西·帕尔克森 Suzie Plakson
       卡尔·吉丽亚德 Carl Gilliard
       Terry Press Terry Press
       Mary Kathleen Gordon Mary Kathleen Gordon
       韦斯·克雷文 Wes Craven
       斯考特·拉瓦  Scott Leva
       玛丽安·马达莱娜 Marianne Maddalena
       Dane Farwell Dane Farwell
       C.C. Taylor C.C. Taylor
       汤姆·艾尔金斯 Tom Elkins
◎简  介
    夜间班机因搭客大都熬夜熬得双眼通红,故得名为红眼班机。勒克斯大西洋酒店的高级行政职员丽莎(瑞秋•麦克亚当斯 Rachel McAdams 饰)明天不能不搭乘她最不喜好的红眼班机,由于她必须在加入完祖母的丧礼后明天就赶回酒店工作。                                                                      丽莎的命运还不错,在机场碰到了英俊潇洒的杰克逊(希里安•墨菲 Cillian Murphy 饰),两日相谈甚欢。更让丽莎欣喜的是,两人搭乘的是同一班红眼班机,而且还相邻而坐。本以为一段美好的缘分就此展开时,丽莎万万没有想到,原本文质彬彬的杰克逊暴露了他的狰狞脸孔。本来杰克逊是可骇份子的一员,他正要前往刺杀住在勒克斯大西洋酒店的平安部的高官。现在,可骇份子绑架了丽莎的父亲,要求身为该酒店东管的丽莎辅佐杰克逊完成这一刺杀使命。在可骇份子的威胁下,丽莎将何去何从?
  1. Video
  2. ID                                       : 1
  3. Format                                   : HEVC
  4. Format/Info                              : High Efficiency Video Coding
  5. Format profile                           : Main [email protected]@High
  6. HDR format                               : SMPTE ST 2086, HDR10 compatible
  7. Codec ID                                 : V_MPEGH/ISO/HEVC
  8. Duration                                 : 1 h 25 min
  9. Bit rate                                 : 14.2 Mb/s
  10. Width                                    : 3 840 pixels
  11. Height                                   : 2 160 pixels
  12. Display aspect ratio                     : 16:9
  13. Frame rate mode                          : Constant
  14. Frame rate                               : 23.976 (24000/1001) FPS
  15. Color space                              : YUV
  16. Chroma subsampling                       : 4:2:0
  17. Bit depth                                : 10 bits
  18. Bits/(Pixel*Frame)                       : 0.071
  19. Stream size                              : 8.43 GiB (76%)
  20. Default                                  : Yes
  21. Forced                                   : No
  22. Color range                              : Limited
  23. Color primaries                          : BT.2020
  24. Transfer characteristics                 : PQ
  25. Matrix coefficients                      : BT.2020 non-constant
  26. Mastering display color primaries        : Display P3
  27. Mastering display luminance              : min: 0.0050 cd/m2, max: 1000 cd/m2
  28. Maximum Content Light Level              : 1010 cd/m2
  29. Maximum Frame-Average Light Level        : 236 cd/m2
  30. Audio #1
  31. ID                                       : 2
  32. Format                                   : DTS XLL
  33. Format/Info                              : Digital Theater Systems
  34. Commercial name                          : DTS-HD Master Audio
  35. Codec ID                                 : A_DTS
  36. Duration                                 : 1 h 25 min
  37. Bit rate mode                            : Variable
  38. Bit rate                                 : 3 961 kb/s
  39. Channel(s)                               : 6 channels
  40. Channel layout                           : C L R Ls Rs LFE
  41. Sampling rate                            : 48.0 kHz
  42. Frame rate                               : 93.750 FPS (512 SPF)
  43. Bit depth                                : 24 bits
  44. Compression mode                         : Lossless
  45. Stream size                              : 2.36 GiB (21%)
  46. Title                                    : DTS-HD Master Audio / 5.1 / 48 kHz / 3960 kbps / 24-bit
  47. Language                                 : English
  48. Default                                  : Yes
  49. Forced                                   : No
  50. Audio #2
  51. ID                                       : 3
  52. Format                                   : AAC LC
  53. Format/Info                              : Advanced Audio Codec Low Complexity
  54. Codec ID                                 : A_AAC-2
  55. Duration                                 : 1 h 25 min
  56. Bit rate                                 : 445 kb/s
  57. Channel(s)                               : 6 channels
  58. Channel layout                           : C L R Ls Rs LFE
  59. Sampling rate                            : 48.0 kHz
  60. Frame rate                               : 46.875 FPS (1024 SPF)
  61. Compression mode                         : Lossy
  62. Stream size                              : 271 MiB (2%)
  63. Title                                    : English
  64. Language                                 : English
  65. Default                                  : No
  66. Forced                                   : No
  67. Text #1
  68. ID                                       : 4
  69. Format                                   : UTF-8
  70. Codec ID                                 : S_TEXT/UTF8
  71. Codec ID/Info                            : UTF-8 Plain Text
  72. Duration                                 : 1 h 16 min
  73. Bit rate                                 : 66 b/s
  74. Frame rate                               : 0.238 FPS
  75. Count of elements                        : 1088
  76. Stream size                              : 37.3 KiB (0%)
  77. Title                                    : English (SDH)
  78. Language                                 : English
  79. Default                                  : Yes
  80. Forced                                   : No
  81. Text #2
  82. ID                                       : 5
  83. Format                                   : PGS
  84. Muxing mode                              : zlib
  85. Codec ID                                 : S_HDMV/PGS
  86. Codec ID/Info                            : Picture based subtitle format used on BDs/HD-DVDs
  87. Duration                                 : 1 h 15 min
  88. Bit rate                                 : 29.5 kb/s
  89. Frame rate                               : 0.431 FPS
  90. Count of elements                        : 1954
  91. Stream size                              : 16.0 MiB (0%)
  92. Language                                 : English
  93. Default                                  : No
  94. Forced                                   : No
  95. Menu
  96. 00:00:00.000                             : en:Chapter 01
  97. 00:04:50.332                             : en:Chapter 02
  98. 00:14:09.182                             : en:Chapter 03
  99. 00:20:15.381                             : en:Chapter 04
  100. 00:30:13.729                             : en:Chapter 05
  101. 00:37:51.603                             : en:Chapter 06
  102. 00:45:34.690                             : en:Chapter 07
  103. 00:52:25.476                             : en:Chapter 08
  104. 00:57:24.858                             : en:Chapter 09
  105. 01:04:14.517                             : en:Chapter 10
  106. 01:12:06.447                             : en:Chapter 11
  107. 01:16:50.481                             : en:Chapter 12
复制代码











Red.Eye.2005.2160p.WEB-DL.x265.10bit.HDR.DTS-HD.MA.5.1-NOGRP.torrent (14.48 KB, 下载次数: 0)
回复

使用道具 举报

懒得打字嘛,点击右侧快捷回复 【右侧内容,后台自定义】
您需要登录后才可以回帖 登录 | 立即注册

本版积分规则

Archiver|手机版|小黑屋| 中国高清网 |网站地图 

GMT+8, 2023-1-29 23:31 , Processed in 0.096820 second(s), 26 queries .

Powered by HDchina X3.4

Copyright 2017-2019©HDchina.All right reserved

返回顶部 联系我们