查看: 100|回复: 0

[2160p-WEB] 红眼航班.Red.Eye.2005.2160p.WEB-DL.x265.8bit.SDR.DTS-HD.MA.5.1-NOGRP 11.28GB

[复制链接]
蓝光币
78 枚
发表于 2023-1-19 19:36:15 | 显示全部楼层 |阅读模式


◎标  题 红眼航班
◎译  名 红眼 / 远程吓机 / 赤眼玄机
◎片  名 Red Eye
◎年  代 2005
◎产  地 美国
◎类  别 惊悚
◎语  言 英语 / 俄语
◎上映日期 2005-08-19(美国)
◎IMDb评分 6.5/10 (124341人评价)
◎IMDb链接 https://www.imdb.com/title/tt0421239/
◎豆瓣评分 6.8/10 (21295人评价)
◎豆瓣链接 https://movie.douban.com/subject/1309051/
◎片  长 85分钟
◎导  演 韦斯·克雷文 Wes Craven
◎编  剧 卡尔·埃尔斯沃斯 Carl Ellsworth
       Dan Foos Dan Foos
◎演  员 瑞秋·麦克亚当斯 Rachel McAdams
       基里安·墨菲 Cillian Murphy
       布莱恩·考克斯 Brian Cox
       杰玛·梅斯 Jayma Mays
       杰克·斯卡利亚 Jack Scalia
       考比·唐纳森 Colby Donaldson
       罗伯特·派恩 Robert Pine
       安吉拉·佩顿 Angela Paton
       劳拉·约翰逊 Laura Johnson
       罗伦·莱斯特 Loren Lester
       马科斯·卡锡 Max Kasch
       菲利普·帕维尔 Philip Pavel
       凯尔·加尔纳 Kyle Gallner
       布列塔尼·奥克斯 Brittany Oaks
       苏西·帕尔克森 Suzie Plakson
       卡尔·吉丽亚德 Carl Gilliard
       Terry Press Terry Press
       Mary Kathleen Gordon Mary Kathleen Gordon
       韦斯·克雷文 Wes Craven
       斯考特·拉瓦  Scott Leva
       玛丽安·马达莱娜 Marianne Maddalena
       Dane Farwell Dane Farwell
       C.C. Taylor C.C. Taylor
       汤姆·艾尔金斯 Tom Elkins
◎简  介
    夜间班机因搭客大都熬夜熬得双眼通红,故得名为红眼班机。勒克斯大西洋酒店的高级行政职员丽莎(瑞秋•麦克亚当斯 Rachel McAdams 饰)明天不能不搭乘她最不喜好的红眼班机,由于她必须在加入完祖母的丧礼后明天就赶回酒店工作。                                                                      丽莎的命运还不错,在机场碰到了英俊潇洒的杰克逊(希里安•墨菲 Cillian Murphy 饰),两日相谈甚欢。更让丽莎欣喜的是,两人搭乘的是同一班红眼班机,而且还相邻而坐。本以为一段美好的缘分就此展开时,丽莎万万没有想到,原本文质彬彬的杰克逊暴露了他的狰狞脸孔。本来杰克逊是可骇份子的一员,他正要前往刺杀住在勒克斯大西洋酒店的平安部的高官。现在,可骇份子绑架了丽莎的父亲,要求身为该酒店东管的丽莎辅佐杰克逊完成这一刺杀使命。在可骇份子的威胁下,丽莎将何去何从?
  1. Video
  2. ID                                       : 1
  3. Format                                   : HEVC
  4. Format/Info                              : High Efficiency Video Coding
  5. Format profile                           : [email protected]@High
  6. Codec ID                                 : V_MPEGH/ISO/HEVC
  7. Duration                                 : 1 h 25 min
  8. Bit rate                                 : 14.5 Mb/s
  9. Width                                    : 3 840 pixels
  10. Height                                   : 2 160 pixels
  11. Display aspect ratio                     : 16:9
  12. Frame rate mode                          : Constant
  13. Frame rate                               : 23.976 (24000/1001) FPS
  14. Color space                              : YUV
  15. Chroma subsampling                       : 4:2:0
  16. Bit depth                                : 8 bits
  17. Bits/(Pixel*Frame)                       : 0.073
  18. Stream size                              : 8.65 GiB (77%)
  19. Default                                  : Yes
  20. Forced                                   : No
  21. Color range                              : Limited
  22. Color primaries                          : BT.709
  23. Transfer characteristics                 : BT.709
  24. Matrix coefficients                      : BT.709
  25. Audio #1
  26. ID                                       : 2
  27. Format                                   : DTS XLL
  28. Format/Info                              : Digital Theater Systems
  29. Commercial name                          : DTS-HD Master Audio
  30. Codec ID                                 : A_DTS
  31. Duration                                 : 1 h 25 min
  32. Bit rate mode                            : Variable
  33. Bit rate                                 : 3 961 kb/s
  34. Channel(s)                               : 6 channels
  35. Channel layout                           : C L R Ls Rs LFE
  36. Sampling rate                            : 48.0 kHz
  37. Frame rate                               : 93.750 FPS (512 SPF)
  38. Bit depth                                : 24 bits
  39. Compression mode                         : Lossless
  40. Stream size                              : 2.36 GiB (21%)
  41. Title                                    : DTS-HD Master Audio / 5.1 / 48 kHz / 3960 kbps / 24-bit
  42. Language                                 : English
  43. Default                                  : Yes
  44. Forced                                   : No
  45. Audio #2
  46. ID                                       : 3
  47. Format                                   : AAC LC
  48. Format/Info                              : Advanced Audio Codec Low Complexity
  49. Codec ID                                 : A_AAC-2
  50. Duration                                 : 1 h 25 min
  51. Bit rate                                 : 445 kb/s
  52. Channel(s)                               : 6 channels
  53. Channel layout                           : C L R Ls Rs LFE
  54. Sampling rate                            : 48.0 kHz
  55. Frame rate                               : 46.875 FPS (1024 SPF)
  56. Compression mode                         : Lossy
  57. Stream size                              : 271 MiB (2%)
  58. Title                                    : English
  59. Language                                 : English
  60. Default                                  : Yes
  61. Forced                                   : No
  62. Text #1
  63. ID                                       : 4
  64. Format                                   : UTF-8
  65. Codec ID                                 : S_TEXT/UTF8
  66. Codec ID/Info                            : UTF-8 Plain Text
  67. Duration                                 : 1 h 16 min
  68. Bit rate                                 : 66 b/s
  69. Frame rate                               : 0.238 FPS
  70. Count of elements                        : 1088
  71. Stream size                              : 37.3 KiB (0%)
  72. Title                                    : English (SDH)
  73. Language                                 : English
  74. Default                                  : Yes
  75. Forced                                   : No
  76. Text #2
  77. ID                                       : 5
  78. Format                                   : PGS
  79. Muxing mode                              : zlib
  80. Codec ID                                 : S_HDMV/PGS
  81. Codec ID/Info                            : Picture based subtitle format used on BDs/HD-DVDs
  82. Duration                                 : 1 h 15 min
  83. Bit rate                                 : 29.5 kb/s
  84. Frame rate                               : 0.431 FPS
  85. Count of elements                        : 1954
  86. Stream size                              : 16.0 MiB (0%)
  87. Language                                 : English
  88. Default                                  : No
  89. Forced                                   : No
  90. Menu
  91. 00:00:00.000                             : en:Chapter 01
  92. 00:04:50.332                             : en:Chapter 02
  93. 00:14:09.182                             : en:Chapter 03
  94. 00:20:15.381                             : en:Chapter 04
  95. 00:30:13.729                             : en:Chapter 05
  96. 00:37:51.603                             : en:Chapter 06
  97. 00:45:34.690                             : en:Chapter 07
  98. 00:52:25.476                             : en:Chapter 08
  99. 00:57:24.858                             : en:Chapter 09
  100. 01:04:14.517                             : en:Chapter 10
  101. 01:12:06.447                             : en:Chapter 11
  102. 01:16:50.481                             : en:Chapter 12
复制代码











Red.Eye.2005.2160p.WEB-DL.x265.8bit.SDR.DTS-HD.MA.5.1-NOGRP.torrent (14.74 KB, 下载次数: 6)
回复

使用道具 举报

懒得打字嘛,点击右侧快捷回复 【右侧内容,后台自定义】
您需要登录后才可以回帖 登录 | 立即注册

本版积分规则

Archiver|手机版|小黑屋| 中国高清网 |网站地图 

GMT+8, 2023-1-29 23:23 , Processed in 0.095316 second(s), 26 queries .

Powered by HDchina X3.4

Copyright 2017-2019©HDchina.All right reserved

返回顶部 联系我们