查看: 81|回复: 0

[2160p-WEB] 宛如天堂[中文字幕].Just.Like.Heaven.2005.2160p.WEB-DL.x265.10bit.HDR.DDP5.1-NOGRP 9.40GB

[复制链接]
蓝光币
80 枚
发表于 2023-1-19 19:36:14 | 显示全部楼层 |阅读模式


◎标  题 好像天堂
◎译  名 出窍情人 / 天堂可人儿
◎片  名 Just Like Heaven
◎年  代 2005
◎产  地 美国
◎类  别 笑剧 / 恋爱 / 奇异
◎语  言 英语 / 汉语普通话
◎上映日期 2005-09-16(美国)
◎IMDb评分 6.7/10 (103422人评价)
◎IMDb链接 https://www.imdb.com/title/tt0425123/
◎豆瓣评分 7.2/10 (14339人评价)
◎豆瓣链接 https://movie.douban.com/subject/1421976/
◎片  长 95 分钟
◎导  演 马克·沃特斯 Mark Waters
◎编  剧 彼得·托兰 Peter Tolan
       莱斯利·迪克逊 Leslie Dixon
       马克·李维 Marc Levy
◎演  员 瑞茜·威瑟斯彭 Reese Witherspoon
       马克·鲁弗洛 Mark Ruffalo
       唐纳尔·罗格 Donal Logue
       迪娜·沃特斯 Dina Waters
       本·申克曼 Ben Shenkman
       乔恩·海德 Jon Heder
       伊万娜·米利塞维奇 Ivana Miličević
       卡罗琳·阿隆 Caroline Aaron
       赵家玲 Rosalind Chao
       罗恩·坎纳达 Ron Canada
       威利·加森 Willie Garson
       Shulie Cowen Shulie Cowen
       比利·贝克 Billy Beck
       Cristian Cruz Cristian Cruz
       凯萨琳·塔柏 Catherine Taber
       凯瑞斯·多西 Kerris Dorsey
       艾莉西亚·沙菲尔 Alyssa Shafer
       保罗·卡塞尔 Paul Cassell
       雷蒙德·奥康纳 Raymond O'Connor
       宋静秀 Lucille Soong
       乔尔·麦金农·米勒 Joel McKinnon Miller
       罗娜·斯科特 Lorna Scott
       杰夫·马库斯 Jeff Marcus
       肯·竹本 Ken Takemoto
       Jacob Chambers Jacob Chambers
       李伯恩 Lee Burns
       阿米塔·巴拉 Amita Balla
       提姆·康纳利 Tim Connolly
       肯·克拉克 Ken Clark
        Michael Longstreth
       Janean Christine Mariani Janean Christine Mariani
       詹姆斯·D·韦斯顿二世 James D. Weston II
       提姆·席特尔兹 Tim Sitarz
◎标  签 恋爱 / 美国 / 笑剧 / ReeseWitherspoon / 美国电影 / 好像天堂 / 2005 / 电影
◎简  介
    单身男人大卫(马克·鲁弗洛 Mark Ruffalo饰)为了忘记悲伤事,决议出租自己的公寓。怪事起头发生:一个叫伊丽莎白(瑞茜·威瑟斯彭 Reese Witherspoon饰)的姑娘闯入了大卫的生活,宣称这是她的屋子。                                                                      伊丽莎白似乎具有超乎凡人的才能,她能随时出现在各个地方,纠缠大卫逼他搬走。但是,她却不晓得这背后隐藏着一个残暴的究竟——实在伊丽莎白只是一具鬼魂。她生前是一个工作狂,在一场车祸中遇难。大卫请来驱鬼人,伊丽莎白渐渐知晓自己的身份。在这个进程中,大卫和伊丽莎白之间发生了人鬼之恋,伊丽莎白生前和大卫一段错过的缘分,陪伴着这段无果的爱情显得倍加欷歔。
  1. Video
  2. ID                                       : 1
  3. Format                                   : HEVC
  4. Format/Info                              : High Efficiency Video Coding
  5. Format profile                           : Main [email protected]@High
  6. HDR format                               : SMPTE ST 2086, HDR10 compatible
  7. Codec ID                                 : V_MPEGH/ISO/HEVC
  8. Duration                                 : 1 h 34 min
  9. Bit rate                                 : 13.6 Mb/s
  10. Width                                    : 3 840 pixels
  11. Height                                   : 2 160 pixels
  12. Display aspect ratio                     : 16:9
  13. Frame rate mode                          : Constant
  14. Frame rate                               : 23.976 (24000/1001) FPS
  15. Color space                              : YUV
  16. Chroma subsampling                       : 4:2:0
  17. Bit depth                                : 10 bits
  18. Bits/(Pixel*Frame)                       : 0.068
  19. Stream size                              : 8.97 GiB (95%)
  20. Default                                  : Yes
  21. Forced                                   : No
  22. Color range                              : Limited
  23. Color primaries                          : BT.2020
  24. Transfer characteristics                 : PQ
  25. Matrix coefficients                      : BT.2020 non-constant
  26. Mastering display color primaries        : BT.2020
  27. Mastering display luminance              : min: 0.0001 cd/m2, max: 1000 cd/m2
  28. Maximum Content Light Level              : 1000 cd/m2
  29. Maximum Frame-Average Light Level        : 256 cd/m2
  30. Audio
  31. ID                                       : 2
  32. Format                                   : E-AC-3
  33. Format/Info                              : Enhanced AC-3
  34. Commercial name                          : Dolby Digital Plus
  35. Codec ID                                 : A_EAC3
  36. Duration                                 : 1 h 36 min
  37. Bit rate mode                            : Constant
  38. Bit rate                                 : 640 kb/s
  39. Channel(s)                               : 6 channels
  40. Channel layout                           : L R C LFE Ls Rs
  41. Sampling rate                            : 48.0 kHz
  42. Frame rate                               : 31.250 FPS (1536 SPF)
  43. Compression mode                         : Lossy
  44. Delay relative to video                  : 1 s 900 ms
  45. Stream size                              : 440 MiB (5%)
  46. Title                                    : English
  47. Language                                 : English
  48. Service kind                             : Complete Main
  49. Default                                  : No
  50. Forced                                   : No
  51. Text #1
  52. ID                                       : 3
  53. Format                                   : UTF-8
  54. Codec ID                                 : S_TEXT/UTF8
  55. Codec ID/Info                            : UTF-8 Plain Text
  56. Duration                                 : 1 h 34 min
  57. Bit rate                                 : 82 b/s
  58. Frame rate                               : 0.306 FPS
  59. Count of elements                        : 1734
  60. Stream size                              : 57.3 KiB (0%)
  61. Title                                    : English
  62. Language                                 : English (US)
  63. Default                                  : Yes
  64. Forced                                   : No
  65. Text #2
  66. ID                                       : 4
  67. Format                                   : UTF-8
  68. Codec ID                                 : S_TEXT/UTF8
  69. Codec ID/Info                            : UTF-8 Plain Text
  70. Duration                                 : 1 h 29 min
  71. Bit rate                                 : 104 b/s
  72. Frame rate                               : 0.281 FPS
  73. Count of elements                        : 1510
  74. Stream size                              : 68.2 KiB (0%)
  75. Title                                    : Arabic
  76. Language                                 : Arabic (001)
  77. Default                                  : No
  78. Forced                                   : No
  79. Text #3
  80. ID                                       : 5
  81. Format                                   : UTF-8
  82. Codec ID                                 : S_TEXT/UTF8
  83. Codec ID/Info                            : UTF-8 Plain Text
  84. Duration                                 : 1 h 29 min
  85. Bit rate                                 : 67 b/s
  86. Frame rate                               : 0.273 FPS
  87. Count of elements                        : 1463
  88. Stream size                              : 44.1 KiB (0%)
  89. Title                                    : Danish
  90. Language                                 : Danish (DK)
  91. Default                                  : No
  92. Forced                                   : No
  93. Text #4
  94. ID                                       : 6
  95. Format                                   : UTF-8
  96. Codec ID                                 : S_TEXT/UTF8
  97. Codec ID/Info                            : UTF-8 Plain Text
  98. Duration                                 : 1 h 29 min
  99. Bit rate                                 : 84 b/s
  100. Frame rate                               : 0.299 FPS
  101. Count of elements                        : 1607
  102. Stream size                              : 55.1 KiB (0%)
  103. Title                                    : German
  104. Language                                 : German (DE)
  105. Default                                  : No
  106. Forced                                   : No
  107. Text #5
  108. ID                                       : 7
  109. Format                                   : UTF-8
  110. Codec ID                                 : S_TEXT/UTF8
  111. Codec ID/Info                            : UTF-8 Plain Text
  112. Duration                                 : 1 h 29 min
  113. Bit rate                                 : 75 b/s
  114. Frame rate                               : 0.284 FPS
  115. Count of elements                        : 1518
  116. Stream size                              : 49.5 KiB (0%)
  117. Title                                    : Spanish
  118. Language                                 : Spanish (ES)
  119. Default                                  : No
  120. Forced                                   : No
  121. Text #6
  122. ID                                       : 8
  123. Format                                   : UTF-8
  124. Codec ID                                 : S_TEXT/UTF8
  125. Codec ID/Info                            : UTF-8 Plain Text
  126. Duration                                 : 1 h 29 min
  127. Bit rate                                 : 71 b/s
  128. Frame rate                               : 0.278 FPS
  129. Count of elements                        : 1492
  130. Stream size                              : 46.8 KiB (0%)
  131. Title                                    : Spanish (Latin America)
  132. Language                                 : Spanish (Latin America)
  133. Default                                  : No
  134. Forced                                   : No
  135. Text #7
  136. ID                                       : 9
  137. Format                                   : UTF-8
  138. Codec ID                                 : S_TEXT/UTF8
  139. Codec ID/Info                            : UTF-8 Plain Text
  140. Duration                                 : 1 h 29 min
  141. Bit rate                                 : 54 b/s
  142. Frame rate                               : 0.266 FPS
  143. Count of elements                        : 1429
  144. Stream size                              : 35.8 KiB (0%)
  145. Title                                    : Finnish
  146. Language                                 : Finnish (FI)
  147. Default                                  : No
  148. Forced                                   : No
  149. Text #8
  150. ID                                       : 10
  151. Format                                   : UTF-8
  152. Codec ID                                 : S_TEXT/UTF8
  153. Codec ID/Info                            : UTF-8 Plain Text
  154. Duration                                 : 1 h 29 min
  155. Bit rate                                 : 64 b/s
  156. Frame rate                               : 0.267 FPS
  157. Count of elements                        : 1433
  158. Stream size                              : 42.4 KiB (0%)
  159. Title                                    : French
  160. Language                                 : French (FR)
  161. Default                                  : No
  162. Forced                                   : No
  163. Text #9
  164. ID                                       : 11
  165. Format                                   : UTF-8
  166. Codec ID                                 : S_TEXT/UTF8
  167. Codec ID/Info                            : UTF-8 Plain Text
  168. Duration                                 : 1 h 33 min
  169. Bit rate                                 : 93 b/s
  170. Frame rate                               : 0.272 FPS
  171. Count of elements                        : 1524
  172. Stream size                              : 63.9 KiB (0%)
  173. Title                                    : Hebrew
  174. Language                                 : Hebrew (IL)
  175. Default                                  : No
  176. Forced                                   : No
  177. Text #10
  178. ID                                       : 12
  179. Format                                   : UTF-8
  180. Codec ID                                 : S_TEXT/UTF8
  181. Codec ID/Info                            : UTF-8 Plain Text
  182. Duration                                 : 1 h 33 min
  183. Bit rate                                 : 181 b/s
  184. Frame rate                               : 0.278 FPS
  185. Count of elements                        : 1565
  186. Stream size                              : 125 KiB (0%)
  187. Title                                    : Hindi
  188. Language                                 : Hindi (IN)
  189. Default                                  : No
  190. Forced                                   : No
  191. Text #11
  192. ID                                       : 13
  193. Format                                   : UTF-8
  194. Codec ID                                 : S_TEXT/UTF8
  195. Codec ID/Info                            : UTF-8 Plain Text
  196. Duration                                 : 1 h 29 min
  197. Bit rate                                 : 62 b/s
  198. Frame rate                               : 0.286 FPS
  199. Count of elements                        : 1529
  200. Stream size                              : 40.9 KiB (0%)
  201. Title                                    : Indonesian
  202. Language                                 : Indonesian (ID)
  203. Default                                  : No
  204. Forced                                   : No
  205. Text #12
  206. ID                                       : 14
  207. Format                                   : UTF-8
  208. Codec ID                                 : S_TEXT/UTF8
  209. Codec ID/Info                            : UTF-8 Plain Text
  210. Duration                                 : 1 h 29 min
  211. Bit rate                                 : 72 b/s
  212. Frame rate                               : 0.284 FPS
  213. Count of elements                        : 1522
  214. Stream size                              : 47.2 KiB (0%)
  215. Title                                    : Italian
  216. Language                                 : Italian (IT)
  217. Default                                  : No
  218. Forced                                   : No
  219. Text #13
  220. ID                                       : 15
  221. Format                                   : UTF-8
  222. Codec ID                                 : S_TEXT/UTF8
  223. Codec ID/Info                            : UTF-8 Plain Text
  224. Duration                                 : 1 h 29 min
  225. Bit rate                                 : 61 b/s
  226. Frame rate                               : 0.274 FPS
  227. Count of elements                        : 1465
  228. Stream size                              : 40.5 KiB (0%)
  229. Title                                    : Japanese
  230. Language                                 : Japanese (JP)
  231. Default                                  : No
  232. Forced                                   : No
  233. Text #14
  234. ID                                       : 16
  235. Format                                   : UTF-8
  236. Codec ID                                 : S_TEXT/UTF8
  237. Codec ID/Info                            : UTF-8 Plain Text
  238. Duration                                 : 1 h 34 min
  239. Bit rate                                 : 89 b/s
  240. Frame rate                               : 0.279 FPS
  241. Count of elements                        : 1571
  242. Stream size                              : 61.7 KiB (0%)
  243. Title                                    : Korean
  244. Language                                 : Korean (KP)
  245. Default                                  : No
  246. Forced                                   : No
  247. Text #15
  248. ID                                       : 17
  249. Format                                   : UTF-8
  250. Codec ID                                 : S_TEXT/UTF8
  251. Codec ID/Info                            : UTF-8 Plain Text
  252. Duration                                 : 1 h 29 min
  253. Bit rate                                 : 60 b/s
  254. Frame rate                               : 0.194 FPS
  255. Count of elements                        : 1039
  256. Stream size                              : 39.2 KiB (0%)
  257. Title                                    : Dutch
  258. Language                                 : Dutch (NL)
  259. Default                                  : No
  260. Forced                                   : No
  261. Text #16
  262. ID                                       : 18
  263. Format                                   : UTF-8
  264. Codec ID                                 : S_TEXT/UTF8
  265. Codec ID/Info                            : UTF-8 Plain Text
  266. Duration                                 : 1 h 29 min
  267. Bit rate                                 : 57 b/s
  268. Frame rate                               : 0.232 FPS
  269. Count of elements                        : 1239
  270. Stream size                              : 37.5 KiB (0%)
  271. Title                                    : Norwegian
  272. Language                                 : Norwegian (NO)
  273. Default                                  : No
  274. Forced                                   : No
  275. Text #17
  276. ID                                       : 19
  277. Format                                   : UTF-8
  278. Codec ID                                 : S_TEXT/UTF8
  279. Codec ID/Info                            : UTF-8 Plain Text
  280. Duration                                 : 1 h 29 min
  281. Bit rate                                 : 70 b/s
  282. Frame rate                               : 0.284 FPS
  283. Count of elements                        : 1526
  284. Stream size                              : 45.9 KiB (0%)
  285. Title                                    : Polish
  286. Language                                 : Polish (PL)
  287. Default                                  : No
  288. Forced                                   : No
  289. Text #18
  290. ID                                       : 20
  291. Format                                   : UTF-8
  292. Codec ID                                 : S_TEXT/UTF8
  293. Codec ID/Info                            : UTF-8 Plain Text
  294. Duration                                 : 1 h 29 min
  295. Bit rate                                 : 67 b/s
  296. Frame rate                               : 0.280 FPS
  297. Count of elements                        : 1502
  298. Stream size                              : 44.0 KiB (0%)
  299. Title                                    : Portuguese
  300. Language                                 : Portuguese (PT)
  301. Default                                  : No
  302. Forced                                   : No
  303. Text #19
  304. ID                                       : 21
  305. Format                                   : UTF-8
  306. Codec ID                                 : S_TEXT/UTF8
  307. Codec ID/Info                            : UTF-8 Plain Text
  308. Duration                                 : 1 h 29 min
  309. Bit rate                                 : 123 b/s
  310. Frame rate                               : 0.290 FPS
  311. Count of elements                        : 1555
  312. Stream size                              : 81.1 KiB (0%)
  313. Title                                    : Russian
  314. Language                                 : Russian (RU)
  315. Default                                  : No
  316. Forced                                   : No
  317. Text #20
  318. ID                                       : 22
  319. Format                                   : UTF-8
  320. Codec ID                                 : S_TEXT/UTF8
  321. Codec ID/Info                            : UTF-8 Plain Text
  322. Duration                                 : 1 h 29 min
  323. Bit rate                                 : 66 b/s
  324. Frame rate                               : 0.265 FPS
  325. Count of elements                        : 1415
  326. Stream size                              : 43.5 KiB (0%)
  327. Title                                    : Swedish
  328. Language                                 : Swedish (SE)
  329. Default                                  : No
  330. Forced                                   : No
  331. Text #21
  332. ID                                       : 23
  333. Format                                   : UTF-8
  334. Codec ID                                 : S_TEXT/UTF8
  335. Codec ID/Info                            : UTF-8 Plain Text
  336. Duration                                 : 1 h 29 min
  337. Bit rate                                 : 286 b/s
  338. Frame rate                               : 0.335 FPS
  339. Count of elements                        : 1794
  340. Stream size                              : 187 KiB (0%)
  341. Title                                    : Tamil
  342. Language                                 : Tamil (IN)
  343. Default                                  : No
  344. Forced                                   : No
  345. Text #22
  346. ID                                       : 24
  347. Format                                   : UTF-8
  348. Codec ID                                 : S_TEXT/UTF8
  349. Codec ID/Info                            : UTF-8 Plain Text
  350. Duration                                 : 1 h 29 min
  351. Bit rate                                 : 243 b/s
  352. Frame rate                               : 0.312 FPS
  353. Count of elements                        : 1672
  354. Stream size                              : 159 KiB (0%)
  355. Title                                    : Telugu
  356. Language                                 : Telugu (IN)
  357. Default                                  : No
  358. Forced                                   : No
  359. Text #23
  360. ID                                       : 25
  361. Format                                   : UTF-8
  362. Codec ID                                 : S_TEXT/UTF8
  363. Codec ID/Info                            : UTF-8 Plain Text
  364. Duration                                 : 1 h 29 min
  365. Bit rate                                 : 182 b/s
  366. Frame rate                               : 0.283 FPS
  367. Count of elements                        : 1517
  368. Stream size                              : 120 KiB (0%)
  369. Title                                    : Thai
  370. Language                                 : Thai (TH)
  371. Default                                  : No
  372. Forced                                   : No
  373. Text #24
  374. ID                                       : 26
  375. Format                                   : UTF-8
  376. Codec ID                                 : S_TEXT/UTF8
  377. Codec ID/Info                            : UTF-8 Plain Text
  378. Duration                                 : 1 h 29 min
  379. Bit rate                                 : 78 b/s
  380. Frame rate                               : 0.285 FPS
  381. Count of elements                        : 1531
  382. Stream size                              : 51.2 KiB (0%)
  383. Title                                    : Turkish
  384. Language                                 : Turkish (TR)
  385. Default                                  : No
  386. Forced                                   : No
  387. Text #25
  388. ID                                       : 27
  389. Format                                   : UTF-8
  390. Codec ID                                 : S_TEXT/UTF8
  391. Codec ID/Info                            : UTF-8 Plain Text
  392. Duration                                 : 1 h 29 min
  393. Bit rate                                 : 60 b/s
  394. Frame rate                               : 0.283 FPS
  395. Count of elements                        : 1516
  396. Stream size                              : 39.9 KiB (0%)
  397. Title                                    : Chinese (Simplified)
  398. Language                                 : Chinese (Simplied)
  399. Default                                  : No
  400. Forced                                   : No
  401. Text #26
  402. ID                                       : 28
  403. Format                                   : UTF-8
  404. Codec ID                                 : S_TEXT/UTF8
  405. Codec ID/Info                            : UTF-8 Plain Text
  406. Duration                                 : 1 h 29 min
  407. Bit rate                                 : 61 b/s
  408. Frame rate                               : 0.282 FPS
  409. Count of elements                        : 1514
  410. Stream size                              : 40.0 KiB (0%)
  411. Title                                    : Chinese (Traditional)
  412. Language                                 : Chinese (Traditional)
  413. Default                                  : No
  414. Forced                                   : No
复制代码











Just.Like.Heaven.2005.2160p.WEB-DL.x265.10bit.HDR.DDP5.1-NOGRP.torrent (24.16 KB, 下载次数: 0)
回复

使用道具 举报

懒得打字嘛,点击右侧快捷回复 【右侧内容,后台自定义】
您需要登录后才可以回帖 登录 | 立即注册

本版积分规则

Archiver|手机版|小黑屋| 中国高清网 |网站地图 

GMT+8, 2023-1-31 17:33 , Processed in 0.131725 second(s), 26 queries .

Powered by HDchina X3.4

Copyright 2017-2019©HDchina.All right reserved

返回顶部 联系我们