查看: 87|回复: 0

[2160p-WEB] 忠诚.Devotion.2022.2160p.NF.WEB-DL.x265.10bit.HDR10Plus.DDP5.1.Atmos-CM 24.39GB

[复制链接]
蓝光币
80 枚
发表于 2023-1-19 19:36:13 | 显示全部楼层 |阅读模式


◎标  题 虔诚
◎译  名 虔诚:豪杰主义、友谊、牺牲的史诗故事 / 决战38度线(台) / Devotion: An Epic Story of Heroism /  Friendship /  and Sacrific
◎片  名 Devotion
◎年  代 2022
◎产  地 美国
◎类  别 剧情 / 行动 / 战争
◎语  言 英语 / 韩语
◎上映日期 2022-09-12(多伦多电影节) / 2022-10-28(美国)
◎IMDb评分 6.9/10 (941人评价)
◎IMDb链接 https://www.imdb.com/title/tt7693316/
◎豆瓣链接 https://movie.douban.com/subject/30163678/
◎片  长 138分钟
◎导  演 J·D·迪拉德 J.D. Dillard
◎编  剧 杰克·克莱恩 Jake Crane
       乔纳森·斯图尔特 Jonathan Stewart
       亚当·马科斯 Adam Makos
◎演  员 乔纳森·梅杰斯 Jonathan Majors
       格伦·鲍威尔 Glen Powell
       赛琳达·斯万 Serinda Swan
       托马斯·萨多斯基 Thomas Sadoski
       约瑟夫·克罗斯 Joseph Cross
       乔·乔纳斯 Joe Jonas
       达伦·卡加索夫 Daren Kagasoff
       斯宾瑟·内维尔 Spencer Neville
       马特·雷迪 Matt Riedy
       尼克·哈格罗弗 Nick Hargrove
       克里斯蒂娜·杰克逊 Christina Jackson
       阿德丁博·汤玛斯 Adetinpo Thomas
       迪安·丹顿 Dean Denton
       巴迪·沃特金斯 Buddy Watkins
       Todd Brown Todd Brown
       Julie Kessler Julie Kessler
       埃里克·梅塞施密特 Erik Messerschmidt
       威恩·托马斯 Wynn Thomas
◎简  介
  Black Label Media将把2015年亚当·马库斯的著作《虔诚:豪杰主义、友谊、牺牲的史诗故事》(Devotion: An Epic Story of Heroism, Friendship, and Sacrifice)搬上大银幕。小说围绕两名朝鲜战争的飞翔员展开,其中一位来自敷裕的英格兰家庭,另一个是来自密西西比黑人家庭。两人成为美国历史上顶尖的飞翔员。格伦·鲍威尔([隐藏人物])将参演影片。本片由杰克·克兰、乔纳森·斯图尔特打造剧本。
  1. Video
  2. ID                                       : 1
  3. Format                                   : HEVC
  4. Format/Info                              : High Efficiency Video Coding
  5. Format profile                           : Main [email protected]@High
  6. HDR format                               : SMPTE ST 2094 App 4, Version 1, HDR10+ Profile B compatible
  7. Codec ID                                 : V_MPEGH/ISO/HEVC
  8. Duration                                 : 2 h 19 min
  9. Bit rate                                 : 24.3 Mb/s
  10. Width                                    : 3 836 pixels
  11. Height                                   : 1 744 pixels
  12. Display aspect ratio                     : 2.2:1
  13. Frame rate mode                          : Constant
  14. Frame rate                               : 23.976 FPS
  15. Color space                              : YUV
  16. Chroma subsampling                       : 4:2:0 (Type 2)
  17. Bit depth                                : 10 bits
  18. Bits/(Pixel*Frame)                       : 0.152
  19. Stream size                              : 23.6 GiB (97%)
  20. Language                                 : English
  21. Default                                  : Yes
  22. Forced                                   : No
  23. Color range                              : Limited
  24. Color primaries                          : BT.2020
  25. Transfer characteristics                 : PQ
  26. Matrix coefficients                      : BT.2020 non-constant
  27. Mastering display color primaries        : Display P3
  28. Mastering display luminance              : min: 0.0050 cd/m2, max: 1000 cd/m2
  29. Maximum Content Light Level              : 1455 cd/m2
  30. Maximum Frame-Average Light Level        : 374 cd/m2
  31. Audio
  32. ID                                       : 2
  33. Format                                   : E-AC-3 JOC
  34. Format/Info                              : Enhanced AC-3 with Joint Object Coding
  35. Commercial name                          : Dolby Digital Plus with Dolby Atmos
  36. Codec ID                                 : A_EAC3
  37. Duration                                 : 2 h 19 min
  38. Bit rate mode                            : Constant
  39. Bit rate                                 : 768 kb/s
  40. Channel(s)                               : 6 channels
  41. Channel layout                           : L R C LFE Ls Rs
  42. Sampling rate                            : 48.0 kHz
  43. Frame rate                               : 31.250 FPS (1536 SPF)
  44. Compression mode                         : Lossy
  45. Stream size                              : 764 MiB (3%)
  46. Language                                 : English
  47. Service kind                             : Complete Main
  48. Default                                  : Yes
  49. Forced                                   : No
  50. Complexity index                         : 16
  51. Number of dynamic objects                : 15
  52. Bed channel count                        : 1 channel
  53. Bed channel configuration                : LFE
  54. Text #1
  55. ID                                       : 3
  56. Format                                   : UTF-8
  57. Codec ID                                 : S_TEXT/UTF8
  58. Codec ID/Info                            : UTF-8 Plain Text
  59. Duration                                 : 2 h 7 min
  60. Bit rate                                 : 53 b/s
  61. Frame rate                               : 0.218 FPS
  62. Count of elements                        : 1666
  63. Stream size                              : 49.8 KiB (0%)
  64. Title                                    : SDH
  65. Language                                 : English
  66. Default                                  : No
  67. Forced                                   : No
  68. Text #2
  69. ID                                       : 4
  70. Format                                   : UTF-8
  71. Codec ID                                 : S_TEXT/UTF8
  72. Codec ID/Info                            : UTF-8 Plain Text
  73. Duration                                 : 2 h 6 min
  74. Bit rate                                 : 46 b/s
  75. Frame rate                               : 0.188 FPS
  76. Count of elements                        : 1424
  77. Stream size                              : 43.4 KiB (0%)
  78. Language                                 : English
  79. Default                                  : No
  80. Forced                                   : No
  81. Menu
  82. 00:00:00.000                             : en:Chapter 01
  83. 00:05:55.146                             : en:Chapter 02
  84. 00:16:04.631                             : en:Chapter 03
  85. 00:24:10.116                             : en:Chapter 04
  86. 00:29:07.956                             : en:Chapter 05
  87. 00:40:14.414                             : en:Chapter 06
  88. 00:49:49.072                             : en:Chapter 07
  89. 00:56:15.709                             : en:Chapter 08
  90. 01:06:05.507                             : en:Chapter 09
  91. 01:11:36.171                             : en:Chapter 10
  92. 01:16:36.721                             : en:Chapter 11
  93. 01:24:02.083                             : en:Chapter 12
  94. 01:34:06.563                             : en:Chapter 13
  95. 01:42:00.412                             : en:Chapter 14
  96. 01:53:06.828                             : en:Chapter 15
  97. 02:02:53.248                             : en:Chapter 16
  98. 02:09:33.106                             : en:Chapter 17
复制代码











Devotion.2022.2160p.NF.WEB-DL.x265.10bit.HDR10Plus.DDP5.1.Atmos-CM.torrent (31.13 KB, 下载次数: 5)
回复

使用道具 举报

懒得打字嘛,点击右侧快捷回复 【右侧内容,后台自定义】
您需要登录后才可以回帖 登录 | 立即注册

本版积分规则

Archiver|手机版|小黑屋| 中国高清网 |网站地图 

GMT+8, 2023-1-31 17:36 , Processed in 0.098964 second(s), 26 queries .

Powered by HDchina X3.4

Copyright 2017-2019©HDchina.All right reserved

返回顶部 联系我们