查看: 79|回复: 0

[2160p-WEB] 房子[中文字幕].The.House.2022.2160p.NF.WEB-DL.x265.10bit.HDR.DDP5.1.Atmos-SMURF 9.92GB

[复制链接]
蓝光币
80 枚
发表于 2023-1-19 19:36:12 | 显示全部楼层 |阅读模式


◎标  题 屋子
◎译  名 屋子里的故事 / 一屋三故(港) / A Casa
◎片  名 The House
◎年  代 2022
◎产  地 美国 / 英国
◎类  别 剧情 / 笑剧 / 动画 / 悬疑 / 惊悚
◎语  言 英语
◎上映日期 2022-01-14(美国收集)
◎IMDb评分 6.8/10 (12883人评价)
◎IMDb链接 https://www.imdb.com/title/tt11703050/
◎豆瓣评分 7.6/10 (5831人评价)
◎豆瓣链接 https://movie.douban.com/subject/35496211/
◎片  长 30分钟
◎导  演 艾玛·德斯沃夫 Emma De Swaef
       马克·詹姆斯·罗斯 Marc James Roels
       妮奇·林卓丝·冯巴 Niki Lindroth von Bahr
       帕洛玛·巴尔扎 Paloma Baeza
◎编  剧 恩达·沃尔什 Enda Walsh
◎演  员 马修·古迪 Matthew Goode
       海伦娜·伯翰·卡特 Helena Bonham Carter
       米娅·高斯 Mia Goth
       保罗·凯耶 Paul Kaye
       米兰达·理查森 Miranda Richardson
       克劳迪·布莱克利 Claudie Blakley
       苏珊·沃卡曼 Susan Wokoma
       福田知盛 Will Sharpe
       马克·希普 Mark Heap
       斯蒂芬妮·科尔 Stephanie Cole
       贾维斯·考科尔 Jarvis Cocker
       杰森·巴内特 Jason Barnett
       斯文·沃尔特 Sven Wollter
       阿伊莎·安托万 Ayesha Antoine
       艾玛·泰特 Emma Tate
       伊冯·隆巴德 Yvonne Lombard
       戴维·霍尔特 David Holt
       韦恩·福雷斯特 Wayne Forester
       约书亚·麦奎尔 Josh McGuire
       古斯塔沃·桑多拉拉 Gustavo Santaolalla
◎简  介
  电影由三部短片组成。                                    
                                女孩带着妹妹和怙恃一家四口遭到约请搬场来到了一幢都丽堂皇的别墅里,在这里,他们不愁吃喝,甚至不用做饭和扫除卫生。虽然新家和宽阔,但女孩更喜好本来阿谁陈旧的温馨的旧屋子。天天夜里,女孩城市在别墅里看到诡异而气象,这令她的心中布满了恐惧,似乎有什么可骇的工作正在这幢别墅、以及爸爸妈妈的身上发生。                                    
                                小鼠是一位衡宇掮客人,他将全数的履历都花在了装修屋子上面,希望这间别墅可以卖一个好代价。当一切的装璜都完成后,小鼠在屋子里震动的发现了横行的蟑螂甲虫,与此同时,想要买房的客人们已经上门了。                                    
                                珍是一位房东,而她的租客们似乎都没法按时交纳房租,这令她没有充足的钱,来改良这幢已经渐渐老化的屋子。珍很是喜好自己的屋子,她的胡想就是可以将它装璜的漂标致亮的,然后约请更多的租客进来居住,但她并没有发现,这个胡想渐渐酿成了牢笼,将她软禁。
  1. Video
  2. ID                                       : 1
  3. Format                                   : HEVC
  4. Format/Info                              : High Efficiency Video Coding
  5. Format profile                           : Main [email protected]@Main
  6. HDR format                               : Dolby Vision, Version 1.0, dvhe.08.06, BL+RPU, HDR10 compatible / SMPTE ST 2086, HDR10 compatible
  7. Codec ID                                 : V_MPEGH/ISO/HEVC
  8. Duration                                 : 1 h 36 min
  9. Bit rate                                 : 14.0 Mb/s
  10. Width                                    : 3 840 pixels
  11. Height                                   : 2 160 pixels
  12. Display aspect ratio                     : 16:9
  13. Frame rate mode                          : Constant
  14. Frame rate                               : 24.000 FPS
  15. Color space                              : YUV
  16. Chroma subsampling                       : 4:2:0 (Type 2)
  17. Bit depth                                : 10 bits
  18. Bits/(Pixel*Frame)                       : 0.070
  19. Stream size                              : 9.40 GiB (95%)
  20. Language                                 : English
  21. Default                                  : Yes
  22. Forced                                   : No
  23. Color range                              : Limited
  24. Color primaries                          : BT.2020
  25. Transfer characteristics                 : PQ
  26. Matrix coefficients                      : BT.2020 non-constant
  27. Mastering display color primaries        : Display P3
  28. Mastering display luminance              : min: 0.0001 cd/m2, max: 1000 cd/m2
  29. Maximum Content Light Level              : 996 cd/m2
  30. Maximum Frame-Average Light Level        : 385 cd/m2
  31. Audio
  32. ID                                       : 2
  33. Format                                   : E-AC-3 JOC
  34. Format/Info                              : Enhanced AC-3 with Joint Object Coding
  35. Commercial name                          : Dolby Digital Plus with Dolby Atmos
  36. Codec ID                                 : A_EAC3
  37. Duration                                 : 1 h 37 min
  38. Bit rate mode                            : Constant
  39. Bit rate                                 : 768 kb/s
  40. Channel(s)                               : 6 channels
  41. Channel layout                           : L R C LFE Ls Rs
  42. Sampling rate                            : 48.0 kHz
  43. Frame rate                               : 31.250 FPS (1536 SPF)
  44. Compression mode                         : Lossy
  45. Stream size                              : 535 MiB (5%)
  46. Language                                 : English
  47. Service kind                             : Complete Main
  48. Default                                  : Yes
  49. Forced                                   : No
  50. Complexity index                         : 16
  51. Number of dynamic objects                : 15
  52. Bed channel count                        : 1 channel
  53. Bed channel configuration                : LFE
  54. Text #1
  55. ID                                       : 3
  56. Format                                   : UTF-8
  57. Codec ID                                 : S_TEXT/UTF8
  58. Codec ID/Info                            : UTF-8 Plain Text
  59. Duration                                 : 1 h 29 min
  60. Bit rate                                 : 41 b/s
  61. Frame rate                               : 0.177 FPS
  62. Count of elements                        : 952
  63. Stream size                              : 27.5 KiB (0%)
  64. Language                                 : English
  65. Default                                  : No
  66. Forced                                   : No
  67. Text #2
  68. ID                                       : 4
  69. Format                                   : UTF-8
  70. Codec ID                                 : S_TEXT/UTF8
  71. Codec ID/Info                            : UTF-8 Plain Text
  72. Duration                                 : 1 h 35 min
  73. Bit rate                                 : 58 b/s
  74. Frame rate                               : 0.257 FPS
  75. Count of elements                        : 1476
  76. Stream size                              : 40.6 KiB (0%)
  77. Title                                    : SDH
  78. Language                                 : English
  79. Default                                  : No
  80. Forced                                   : No
  81. Text #3
  82. ID                                       : 5
  83. Format                                   : UTF-8
  84. Codec ID                                 : S_TEXT/UTF8
  85. Codec ID/Info                            : UTF-8 Plain Text
  86. Duration                                 : 1 h 30 min
  87. Bit rate                                 : 63 b/s
  88. Frame rate                               : 0.166 FPS
  89. Count of elements                        : 899
  90. Stream size                              : 41.8 KiB (0%)
  91. Language                                 : Arabic
  92. Default                                  : No
  93. Forced                                   : No
  94. Text #4
  95. ID                                       : 6
  96. Format                                   : UTF-8
  97. Codec ID                                 : S_TEXT/UTF8
  98. Codec ID/Info                            : UTF-8 Plain Text
  99. Duration                                 : 1 h 35 min
  100. Bit rate                                 : 35 b/s
  101. Frame rate                               : 0.155 FPS
  102. Count of elements                        : 890
  103. Stream size                              : 25.1 KiB (0%)
  104. Language                                 : Czech
  105. Default                                  : No
  106. Forced                                   : No
  107. Text #5
  108. ID                                       : 7
  109. Format                                   : UTF-8
  110. Codec ID                                 : S_TEXT/UTF8
  111. Codec ID/Info                            : UTF-8 Plain Text
  112. Duration                                 : 1 h 35 min
  113. Bit rate                                 : 35 b/s
  114. Frame rate                               : 0.159 FPS
  115. Count of elements                        : 911
  116. Stream size                              : 25.1 KiB (0%)
  117. Language                                 : Danish
  118. Default                                  : No
  119. Forced                                   : No
  120. Text #6
  121. ID                                       : 8
  122. Format                                   : UTF-8
  123. Codec ID                                 : S_TEXT/UTF8
  124. Codec ID/Info                            : UTF-8 Plain Text
  125. Duration                                 : 1 h 35 min
  126. Bit rate                                 : 37 b/s
  127. Frame rate                               : 0.155 FPS
  128. Count of elements                        : 892
  129. Stream size                              : 26.1 KiB (0%)
  130. Language                                 : German
  131. Default                                  : No
  132. Forced                                   : No
  133. Text #7
  134. ID                                       : 9
  135. Format                                   : UTF-8
  136. Codec ID                                 : S_TEXT/UTF8
  137. Codec ID/Info                            : UTF-8 Plain Text
  138. Duration                                 : 1 h 35 min
  139. Bit rate                                 : 61 b/s
  140. Frame rate                               : 0.159 FPS
  141. Count of elements                        : 912
  142. Stream size                              : 43.3 KiB (0%)
  143. Language                                 : Greek
  144. Default                                  : No
  145. Forced                                   : No
  146. Text #8
  147. ID                                       : 10
  148. Format                                   : UTF-8
  149. Codec ID                                 : S_TEXT/UTF8
  150. Codec ID/Info                            : UTF-8 Plain Text
  151. Duration                                 : 1 h 35 min
  152. Bit rate                                 : 37 b/s
  153. Frame rate                               : 0.158 FPS
  154. Count of elements                        : 909
  155. Stream size                              : 26.4 KiB (0%)
  156. Title                                    : Latin American
  157. Language                                 : Spanish (Latin America)
  158. Default                                  : No
  159. Forced                                   : No
  160. Text #9
  161. ID                                       : 11
  162. Format                                   : UTF-8
  163. Codec ID                                 : S_TEXT/UTF8
  164. Codec ID/Info                            : UTF-8 Plain Text
  165. Duration                                 : 1 h 35 min
  166. Bit rate                                 : 35 b/s
  167. Frame rate                               : 0.158 FPS
  168. Count of elements                        : 906
  169. Stream size                              : 24.7 KiB (0%)
  170. Language                                 : Spanish (ES)
  171. Default                                  : No
  172. Forced                                   : No
  173. Text #10
  174. ID                                       : 12
  175. Format                                   : UTF-8
  176. Codec ID                                 : S_TEXT/UTF8
  177. Codec ID/Info                            : UTF-8 Plain Text
  178. Duration                                 : 1 h 35 min
  179. Bit rate                                 : 32 b/s
  180. Frame rate                               : 0.144 FPS
  181. Count of elements                        : 826
  182. Stream size                              : 23.1 KiB (0%)
  183. Language                                 : Finnish
  184. Default                                  : No
  185. Forced                                   : No
  186. Text #11
  187. ID                                       : 13
  188. Format                                   : UTF-8
  189. Codec ID                                 : S_TEXT/UTF8
  190. Codec ID/Info                            : UTF-8 Plain Text
  191. Duration                                 : 1 h 35 min
  192. Bit rate                                 : 37 b/s
  193. Frame rate                               : 0.148 FPS
  194. Count of elements                        : 853
  195. Stream size                              : 26.0 KiB (0%)
  196. Language                                 : French
  197. Default                                  : No
  198. Forced                                   : No
  199. Text #12
  200. ID                                       : 14
  201. Format                                   : UTF-8
  202. Codec ID                                 : S_TEXT/UTF8
  203. Codec ID/Info                            : UTF-8 Plain Text
  204. Duration                                 : 1 h 30 min
  205. Bit rate                                 : 61 b/s
  206. Frame rate                               : 0.164 FPS
  207. Count of elements                        : 891
  208. Stream size                              : 40.5 KiB (0%)
  209. Language                                 : Hebrew
  210. Default                                  : No
  211. Forced                                   : No
  212. Text #13
  213. ID                                       : 15
  214. Format                                   : UTF-8
  215. Codec ID                                 : S_TEXT/UTF8
  216. Codec ID/Info                            : UTF-8 Plain Text
  217. Duration                                 : 1 h 35 min
  218. Bit rate                                 : 32 b/s
  219. Frame rate                               : 0.156 FPS
  220. Count of elements                        : 899
  221. Stream size                              : 22.9 KiB (0%)
  222. Language                                 : Croatian
  223. Default                                  : No
  224. Forced                                   : No
  225. Text #14
  226. ID                                       : 16
  227. Format                                   : UTF-8
  228. Codec ID                                 : S_TEXT/UTF8
  229. Codec ID/Info                            : UTF-8 Plain Text
  230. Duration                                 : 1 h 35 min
  231. Bit rate                                 : 39 b/s
  232. Frame rate                               : 0.157 FPS
  233. Count of elements                        : 902
  234. Stream size                              : 27.4 KiB (0%)
  235. Language                                 : Hungarian
  236. Default                                  : No
  237. Forced                                   : No
  238. Text #15
  239. ID                                       : 17
  240. Format                                   : UTF-8
  241. Codec ID                                 : S_TEXT/UTF8
  242. Codec ID/Info                            : UTF-8 Plain Text
  243. Duration                                 : 1 h 35 min
  244. Bit rate                                 : 36 b/s
  245. Frame rate                               : 0.158 FPS
  246. Count of elements                        : 909
  247. Stream size                              : 25.3 KiB (0%)
  248. Language                                 : Indonesian
  249. Default                                  : No
  250. Forced                                   : No
  251. Text #16
  252. ID                                       : 18
  253. Format                                   : UTF-8
  254. Codec ID                                 : S_TEXT/UTF8
  255. Codec ID/Info                            : UTF-8 Plain Text
  256. Duration                                 : 1 h 35 min
  257. Bit rate                                 : 36 b/s
  258. Frame rate                               : 0.154 FPS
  259. Count of elements                        : 883
  260. Stream size                              : 25.9 KiB (0%)
  261. Language                                 : Italian
  262. Default                                  : No
  263. Forced                                   : No
  264. Text #17
  265. ID                                       : 19
  266. Format                                   : UTF-8
  267. Codec ID                                 : S_TEXT/UTF8
  268. Codec ID/Info                            : UTF-8 Plain Text
  269. Duration                                 : 1 h 35 min
  270. Bit rate                                 : 37 b/s
  271. Frame rate                               : 0.159 FPS
  272. Count of elements                        : 912
  273. Stream size                              : 26.3 KiB (0%)
  274. Language                                 : Japanese
  275. Default                                  : No
  276. Forced                                   : No
  277. Text #18
  278. ID                                       : 20
  279. Format                                   : UTF-8
  280. Codec ID                                 : S_TEXT/UTF8
  281. Codec ID/Info                            : UTF-8 Plain Text
  282. Duration                                 : 1 h 35 min
  283. Bit rate                                 : 48 b/s
  284. Frame rate                               : 0.158 FPS
  285. Count of elements                        : 910
  286. Stream size                              : 33.9 KiB (0%)
  287. Language                                 : Korean
  288. Default                                  : No
  289. Forced                                   : No
  290. Text #19
  291. ID                                       : 21
  292. Format                                   : UTF-8
  293. Codec ID                                 : S_TEXT/UTF8
  294. Codec ID/Info                            : UTF-8 Plain Text
  295. Duration                                 : 1 h 35 min
  296. Bit rate                                 : 33 b/s
  297. Frame rate                               : 0.159 FPS
  298. Count of elements                        : 913
  299. Stream size                              : 23.3 KiB (0%)
  300. Language                                 : Malay
  301. Default                                  : No
  302. Forced                                   : No
  303. Text #20
  304. ID                                       : 22
  305. Format                                   : UTF-8
  306. Codec ID                                 : S_TEXT/UTF8
  307. Codec ID/Info                            : UTF-8 Plain Text
  308. Duration                                 : 1 h 35 min
  309. Bit rate                                 : 34 b/s
  310. Frame rate                               : 0.154 FPS
  311. Count of elements                        : 883
  312. Stream size                              : 24.3 KiB (0%)
  313. Language                                 : Norwegian Bokmal
  314. Default                                  : No
  315. Forced                                   : No
  316. Text #21
  317. ID                                       : 23
  318. Format                                   : UTF-8
  319. Codec ID                                 : S_TEXT/UTF8
  320. Codec ID/Info                            : UTF-8 Plain Text
  321. Duration                                 : 1 h 31 min
  322. Bit rate                                 : 36 b/s
  323. Frame rate                               : 0.132 FPS
  324. Count of elements                        : 723
  325. Stream size                              : 24.2 KiB (0%)
  326. Language                                 : Dutch
  327. Default                                  : No
  328. Forced                                   : No
  329. Text #22
  330. ID                                       : 24
  331. Format                                   : UTF-8
  332. Codec ID                                 : S_TEXT/UTF8
  333. Codec ID/Info                            : UTF-8 Plain Text
  334. Duration                                 : 1 h 35 min
  335. Bit rate                                 : 30 b/s
  336. Frame rate                               : 0.150 FPS
  337. Count of elements                        : 859
  338. Stream size                              : 21.1 KiB (0%)
  339. Language                                 : Polish
  340. Default                                  : No
  341. Forced                                   : No
  342. Text #23
  343. ID                                       : 25
  344. Format                                   : UTF-8
  345. Codec ID                                 : S_TEXT/UTF8
  346. Codec ID/Info                            : UTF-8 Plain Text
  347. Duration                                 : 1 h 35 min
  348. Bit rate                                 : 35 b/s
  349. Frame rate                               : 0.157 FPS
  350. Count of elements                        : 900
  351. Stream size                              : 25.2 KiB (0%)
  352. Title                                    : Brazilian
  353. Language                                 : Portuguese (BR)
  354. Default                                  : No
  355. Forced                                   : No
  356. Text #24
  357. ID                                       : 26
  358. Format                                   : UTF-8
  359. Codec ID                                 : S_TEXT/UTF8
  360. Codec ID/Info                            : UTF-8 Plain Text
  361. Duration                                 : 1 h 35 min
  362. Bit rate                                 : 35 b/s
  363. Frame rate                               : 0.157 FPS
  364. Count of elements                        : 902
  365. Stream size                              : 24.9 KiB (0%)
  366. Language                                 : Portuguese (PT)
  367. Default                                  : No
  368. Forced                                   : No
  369. Text #25
  370. ID                                       : 27
  371. Format                                   : UTF-8
  372. Codec ID                                 : S_TEXT/UTF8
  373. Codec ID/Info                            : UTF-8 Plain Text
  374. Duration                                 : 1 h 35 min
  375. Bit rate                                 : 41 b/s
  376. Frame rate                               : 0.157 FPS
  377. Count of elements                        : 904
  378. Stream size                              : 28.9 KiB (0%)
  379. Language                                 : Romanian
  380. Default                                  : No
  381. Forced                                   : No
  382. Text #26
  383. ID                                       : 28
  384. Format                                   : UTF-8
  385. Codec ID                                 : S_TEXT/UTF8
  386. Codec ID/Info                            : UTF-8 Plain Text
  387. Duration                                 : 1 h 35 min
  388. Bit rate                                 : 58 b/s
  389. Frame rate                               : 0.160 FPS
  390. Count of elements                        : 917
  391. Stream size                              : 41.3 KiB (0%)
  392. Language                                 : Russian
  393. Default                                  : No
  394. Forced                                   : No
  395. Text #27
  396. ID                                       : 29
  397. Format                                   : UTF-8
  398. Codec ID                                 : S_TEXT/UTF8
  399. Codec ID/Info                            : UTF-8 Plain Text
  400. Duration                                 : 1 h 35 min
  401. Bit rate                                 : 35 b/s
  402. Frame rate                               : 0.151 FPS
  403. Count of elements                        : 869
  404. Stream size                              : 24.7 KiB (0%)
  405. Language                                 : Swedish
  406. Default                                  : No
  407. Forced                                   : No
  408. Text #28
  409. ID                                       : 30
  410. Format                                   : UTF-8
  411. Codec ID                                 : S_TEXT/UTF8
  412. Codec ID/Info                            : UTF-8 Plain Text
  413. Duration                                 : 1 h 35 min
  414. Bit rate                                 : 91 b/s
  415. Frame rate                               : 0.159 FPS
  416. Count of elements                        : 915
  417. Stream size                              : 64.0 KiB (0%)
  418. Language                                 : Thai
  419. Default                                  : No
  420. Forced                                   : No
  421. Text #29
  422. ID                                       : 31
  423. Format                                   : UTF-8
  424. Codec ID                                 : S_TEXT/UTF8
  425. Codec ID/Info                            : UTF-8 Plain Text
  426. Duration                                 : 1 h 35 min
  427. Bit rate                                 : 39 b/s
  428. Frame rate                               : 0.164 FPS
  429. Count of elements                        : 942
  430. Stream size                              : 27.4 KiB (0%)
  431. Language                                 : Turkish
  432. Default                                  : No
  433. Forced                                   : No
  434. Text #30
  435. ID                                       : 32
  436. Format                                   : UTF-8
  437. Codec ID                                 : S_TEXT/UTF8
  438. Codec ID/Info                            : UTF-8 Plain Text
  439. Duration                                 : 1 h 35 min
  440. Bit rate                                 : 61 b/s
  441. Frame rate                               : 0.158 FPS
  442. Count of elements                        : 906
  443. Stream size                              : 42.9 KiB (0%)
  444. Language                                 : Ukrainian
  445. Default                                  : No
  446. Forced                                   : No
  447. Text #31
  448. ID                                       : 33
  449. Format                                   : UTF-8
  450. Codec ID                                 : S_TEXT/UTF8
  451. Codec ID/Info                            : UTF-8 Plain Text
  452. Duration                                 : 1 h 35 min
  453. Bit rate                                 : 57 b/s
  454. Frame rate                               : 0.155 FPS
  455. Count of elements                        : 888
  456. Stream size                              : 40.3 KiB (0%)
  457. Language                                 : Vietnamese
  458. Default                                  : No
  459. Forced                                   : No
  460. Text #32
  461. ID                                       : 34
  462. Format                                   : UTF-8
  463. Codec ID                                 : S_TEXT/UTF8
  464. Codec ID/Info                            : UTF-8 Plain Text
  465. Duration                                 : 1 h 35 min
  466. Bit rate                                 : 39 b/s
  467. Frame rate                               : 0.158 FPS
  468. Count of elements                        : 906
  469. Stream size                              : 27.4 KiB (0%)
  470. Title                                    : Simplified
  471. Language                                 : Chinese (Simplied)
  472. Default                                  : No
  473. Forced                                   : No
  474. Text #33
  475. ID                                       : 35
  476. Format                                   : UTF-8
  477. Codec ID                                 : S_TEXT/UTF8
  478. Codec ID/Info                            : UTF-8 Plain Text
  479. Duration                                 : 1 h 35 min
  480. Bit rate                                 : 36 b/s
  481. Frame rate                               : 0.159 FPS
  482. Count of elements                        : 913
  483. Stream size                              : 25.4 KiB (0%)
  484. Title                                    : Traditional
  485. Language                                 : Chinese (Traditional)
  486. Default                                  : No
  487. Forced                                   : No
  488. Menu
  489. 01:31:36.000                             : en:End Credits
复制代码











The.House.2022.2160p.NF.WEB-DL.x265.10bit.HDR.DDP5.1.Atmos-SMURF.torrent (25.47 KB, 下载次数: 4)
回复

使用道具 举报

懒得打字嘛,点击右侧快捷回复 【右侧内容,后台自定义】
您需要登录后才可以回帖 登录 | 立即注册

本版积分规则

Archiver|手机版|小黑屋| 中国高清网 |网站地图 

GMT+8, 2023-1-31 19:22 , Processed in 0.141079 second(s), 26 queries .

Powered by HDchina X3.4

Copyright 2017-2019©HDchina.All right reserved

返回顶部 联系我们