查看: 77|回复: 0

[2160p-WEB] 忠诚.Devotion.2022.2160p.WEB-DL.DDP5.1.Atmos.DV.MP4.x265-DVSUX 24.43GB

[复制链接]
蓝光币
80 枚
发表于 2023-1-19 19:36:12 | 显示全部楼层 |阅读模式


◎标  题 虔诚
◎译  名 虔诚:豪杰主义、友谊、牺牲的史诗故事 / 决战38度线(台) / Devotion: An Epic Story of Heroism /  Friendship /  and Sacrific
◎片  名 Devotion
◎年  代 2022
◎产  地 美国
◎类  别 剧情 / 行动 / 战争
◎语  言 英语 / 韩语
◎上映日期 2022-09-12(多伦多电影节) / 2022-10-28(美国)
◎IMDb评分 6.9/10 (941人评价)
◎IMDb链接 https://www.imdb.com/title/tt7693316/
◎豆瓣链接 https://movie.douban.com/subject/30163678/
◎片  长 138分钟
◎导  演 J·D·迪拉德 J.D. Dillard
◎编  剧 杰克·克莱恩 Jake Crane
       乔纳森·斯图尔特 Jonathan Stewart
       亚当·马科斯 Adam Makos
◎演  员 乔纳森·梅杰斯 Jonathan Majors
       格伦·鲍威尔 Glen Powell
       赛琳达·斯万 Serinda Swan
       托马斯·萨多斯基 Thomas Sadoski
       约瑟夫·克罗斯 Joseph Cross
       乔·乔纳斯 Joe Jonas
       达伦·卡加索夫 Daren Kagasoff
       斯宾瑟·内维尔 Spencer Neville
       马特·雷迪 Matt Riedy
       尼克·哈格罗弗 Nick Hargrove
       克里斯蒂娜·杰克逊 Christina Jackson
       阿德丁博·汤玛斯 Adetinpo Thomas
       迪安·丹顿 Dean Denton
       巴迪·沃特金斯 Buddy Watkins
       Todd Brown Todd Brown
       Julie Kessler Julie Kessler
       埃里克·梅塞施密特 Erik Messerschmidt
       威恩·托马斯 Wynn Thomas
◎简  介
  Black Label Media将把2015年亚当·马库斯的著作《虔诚:豪杰主义、友谊、牺牲的史诗故事》(Devotion: An Epic Story of Heroism, Friendship, and Sacrifice)搬上大银幕。小说围绕两名朝鲜战争的飞翔员展开,其中一位来自敷裕的英格兰家庭,另一个是来自密西西比黑人家庭。两人成为美国历史上顶尖的飞翔员。格伦·鲍威尔([隐藏人物])将参演影片。本片由杰克·克兰、乔纳森·斯图尔特打造剧本。
  1. Video
  2. ID                                       : 1
  3. Format                                   : HEVC
  4. Format/Info                              : High Efficiency Video Coding
  5. Format profile                           : Main [email protected]@High
  6. HDR format                               : Dolby Vision, Version 1.0, dvhe.05.06, BL+RPU
  7. Codec ID                                 : dvhe
  8. Codec ID/Info                            : High Efficiency Video Coding with Dolby Vision
  9. Duration                                 : 2 h 19 min
  10. Bit rate                                 : 24.4 Mb/s
  11. Width                                    : 3 840 pixels
  12. Original width                           : 3 836 pixels
  13. Height                                   : 1 744 pixels
  14. Display aspect ratio                     : 2.2:1
  15. Original display aspect ratio            : 2.2:1
  16. Frame rate mode                          : Constant
  17. Frame rate                               : 23.976 (24000/1001) FPS
  18. Color space                              : YUV
  19. Chroma subsampling                       : 4:2:0
  20. Bit depth                                : 10 bits
  21. Bits/(Pixel*Frame)                       : 0.152
  22. Stream size                              : 23.7 GiB (97%)
  23. Default                                  : Yes
  24. Alternate group                          : 1
  25. Encoded date                             : UTC 2023-01-08 06:06:12
  26. Tagged date                              : UTC 2023-01-08 06:10:13
  27. Codec configuration box                  : hvcC+dvcC
  28. Audio
  29. ID                                       : 2
  30. Format                                   : E-AC-3 JOC
  31. Format/Info                              : Enhanced AC-3 with Joint Object Coding
  32. Commercial name                          : Dolby Digital Plus with Dolby Atmos
  33. Codec ID                                 : ec-3
  34. Duration                                 : 2 h 19 min
  35. Bit rate mode                            : Constant
  36. Bit rate                                 : 768 kb/s
  37. Maximum bit rate                         : 811 kb/s
  38. Channel(s)                               : 6 channels
  39. Channel layout                           : L R C LFE Ls Rs
  40. Sampling rate                            : 48.0 kHz
  41. Frame rate                               : 31.250 FPS (1536 SPF)
  42. Compression mode                         : Lossy
  43. Stream size                              : 764 MiB (3%)
  44. Title                                    : English
  45. Language                                 : English
  46. Service kind                             : Complete Main
  47. Default                                  : Yes
  48. Alternate group                          : 1
  49. Tagged date                              : UTC 2023-01-08 06:10:13
  50. Complexity index                         : Not present / 16
  51. Number of dynamic objects                : 15
  52. Bed channel count                        : 1 channel
  53. Bed channel configuration                : LFE
  54. Text #1
  55. ID                                       : 3
  56. Format                                   : Timed Text
  57. Codec ID                                 : tx3g
  58. Duration                                 : 2 h 8 min
  59. Bit rate mode                            : Variable
  60. Bit rate                                 : 62 b/s
  61. Frame rate                               : 0.432 FPS
  62. Stream size                              : 58.1 KiB (0%)
  63. Title                                    : English
  64. Language                                 : English
  65. Forced                                   : No
  66. Encoded date                             : UTC 2023-01-08 06:10:13
  67. Tagged date                              : UTC 2023-01-08 06:10:13
  68. Text #2
  69. ID                                       : 4
  70. Format                                   : Timed Text
  71. Codec ID                                 : tx3g
  72. Duration                                 : 2 h 8 min
  73. Bit rate mode                            : Variable
  74. Bit rate                                 : 54 b/s
  75. Frame rate                               : 0.369 FPS
  76. Stream size                              : 50.9 KiB (0%)
  77. Title                                    : English
  78. Language                                 : English
  79. Forced                                   : No
  80. Encoded date                             : UTC 2023-01-08 06:10:13
  81. Tagged date                              : UTC 2023-01-08 06:10:13
复制代码











Devotion.2022.2160p.WEB-DL.DDP5.1.Atmos.DV.MP4.x265-DVSUX.torrent (31.18 KB, 下载次数: 4)
回复

使用道具 举报

懒得打字嘛,点击右侧快捷回复 【右侧内容,后台自定义】
您需要登录后才可以回帖 登录 | 立即注册

本版积分规则

Archiver|手机版|小黑屋| 中国高清网 |网站地图 

GMT+8, 2023-1-31 19:12 , Processed in 0.091520 second(s), 26 queries .

Powered by HDchina X3.4

Copyright 2017-2019©HDchina.All right reserved

返回顶部 联系我们