查看: 66|回复: 0

[2160p-WEB] 一落千丈:波音大调查[中文字幕].Downfall.The.Case.Against.Boeing.2022.2160p.NF.WEB-DL.x265.10bit.HDR.DDP5.1-SMURF 9.53GB

[复制链接]
蓝光币
80 枚
发表于 2023-1-19 19:36:09 | 显示全部楼层 |阅读模式


◎标  题 一落千丈:波音大观察
◎译  名 坠:波音大观察(台)
◎片  名 Downfall: The Case Against Boeing
◎年  代 2022
◎产  地 美国
◎类  别 记载片
◎语  言 英语
◎上映日期 2022-02-18(美国)
◎IMDb评分 7.4/10 (11552人评价)
◎IMDb链接 https://www.imdb.com/title/tt11893274/
◎豆瓣评分 8.2/10 (9486人评价)
◎豆瓣链接 https://movie.douban.com/subject/35694785/
◎片  长 89分钟
◎导  演 罗瑞·肯尼迪 Rory Kennedy
◎编  剧 马克·贝利 Mark Bailey
       凯文·麦卡莱斯特 Keven McAlester
◎演  员 莱斯特·赫特 Lester Holt
       玛丽亚·巴尔蒂罗莫 Maria Bartiromo
       Peter Jennings Peter Jennings
       切斯利·舒伦伯格 Chesley Sullenberger
       理查德·恩格尔 Richard Engel
       Peter A. DeFazio Peter A. DeFazio
       唐纳德·特朗普 Donald Trump
       赵小兰 Elaine L. Chao
◎简  介
  在《一落千丈:波音大观察》这部使人毛骨悚然的记载片中,曾获奥斯卡提名的电影人罗瑞·肯尼迪揭穿了企业对题目标漠视和贪心若何致使两架波音 MAX 737 飞机在短短五个月内相继失事。在航空专家、消息记者、前波音职员、美国国会和受害者家属的主导下,这部电影揭开了一家已经备受推重的公司背后一味削减本钱和掩人线人的文化。《一落千丈:波音大观察》痛斥来自华尔街的废弛影响,并指出美国企业所秉持的理念的危险之处 — 偶然这甚至事关人命。本片由罗瑞·肯尼迪执导和建造,马克·贝利建造和结合编剧,布莱恩·格拉泽和朗·霍华德监制。
  1. Video
  2. ID                                       : 1
  3. Format                                   : HEVC
  4. Format/Info                              : High Efficiency Video Coding
  5. Format profile                           : Main [email protected]@Main
  6. HDR format                               : Dolby Vision, Version 1.0, dvhe.08.06, BL+RPU, HDR10 compatible / SMPTE ST 2086, HDR10 compatible
  7. Codec ID                                 : V_MPEGH/ISO/HEVC
  8. Duration                                 : 1 h 28 min
  9. Bit rate                                 : 14.7 Mb/s
  10. Width                                    : 3 840 pixels
  11. Height                                   : 2 160 pixels
  12. Display aspect ratio                     : 16:9
  13. Frame rate mode                          : Constant
  14. Frame rate                               : 23.976 (24000/1001) FPS
  15. Color space                              : YUV
  16. Chroma subsampling                       : 4:2:0 (Type 2)
  17. Bit depth                                : 10 bits
  18. Bits/(Pixel*Frame)                       : 0.074
  19. Stream size                              : 9.13 GiB (96%)
  20. Language                                 : English
  21. Default                                  : Yes
  22. Forced                                   : No
  23. Color range                              : Limited
  24. Color primaries                          : BT.2020
  25. Transfer characteristics                 : PQ
  26. Matrix coefficients                      : BT.2020 non-constant
  27. Mastering display color primaries        : Display P3
  28. Mastering display luminance              : min: 0.0001 cd/m2, max: 1000 cd/m2
  29. Maximum Content Light Level              : 1454 cd/m2
  30. Maximum Frame-Average Light Level        : 133 cd/m2
  31. Audio
  32. ID                                       : 2
  33. Format                                   : E-AC-3
  34. Format/Info                              : Enhanced AC-3
  35. Commercial name                          : Dolby Digital Plus
  36. Codec ID                                 : A_EAC3
  37. Duration                                 : 1 h 30 min
  38. Bit rate mode                            : Constant
  39. Bit rate                                 : 640 kb/s
  40. Channel(s)                               : 6 channels
  41. Channel layout                           : L R C LFE Ls Rs
  42. Sampling rate                            : 48.0 kHz
  43. Frame rate                               : 31.250 FPS (1536 SPF)
  44. Compression mode                         : Lossy
  45. Stream size                              : 413 MiB (4%)
  46. Language                                 : English
  47. Service kind                             : Complete Main
  48. Default                                  : Yes
  49. Forced                                   : No
  50. Text #1
  51. ID                                       : 3
  52. Format                                   : UTF-8
  53. Codec ID                                 : S_TEXT/UTF8
  54. Codec ID/Info                            : UTF-8 Plain Text
  55. Duration                                 : 47 min 49 s
  56. Bit rate                                 : 3 b/s
  57. Frame rate                               : 0.009 FPS
  58. Count of elements                        : 25
  59. Stream size                              : 1.31 KiB (0%)
  60. Title                                    : Forced
  61. Language                                 : English
  62. Default                                  : Yes
  63. Forced                                   : Yes
  64. Text #2
  65. ID                                       : 4
  66. Format                                   : UTF-8
  67. Codec ID                                 : S_TEXT/UTF8
  68. Codec ID/Info                            : UTF-8 Plain Text
  69. Duration                                 : 1 h 25 min
  70. Bit rate                                 : 89 b/s
  71. Frame rate                               : 0.250 FPS
  72. Count of elements                        : 1285
  73. Stream size                              : 56.4 KiB (0%)
  74. Language                                 : English
  75. Default                                  : No
  76. Forced                                   : No
  77. Text #3
  78. ID                                       : 5
  79. Format                                   : UTF-8
  80. Codec ID                                 : S_TEXT/UTF8
  81. Codec ID/Info                            : UTF-8 Plain Text
  82. Duration                                 : 1 h 26 min
  83. Bit rate                                 : 93 b/s
  84. Frame rate                               : 0.256 FPS
  85. Count of elements                        : 1326
  86. Stream size                              : 59.5 KiB (0%)
  87. Title                                    : SDH
  88. Language                                 : English
  89. Default                                  : No
  90. Forced                                   : No
  91. Text #4
  92. ID                                       : 6
  93. Format                                   : UTF-8
  94. Codec ID                                 : S_TEXT/UTF8
  95. Codec ID/Info                            : UTF-8 Plain Text
  96. Duration                                 : 1 h 27 min
  97. Bit rate                                 : 139 b/s
  98. Frame rate                               : 0.253 FPS
  99. Count of elements                        : 1325
  100. Stream size                              : 89.2 KiB (0%)
  101. Language                                 : Arabic
  102. Default                                  : No
  103. Forced                                   : No
  104. Text #5
  105. ID                                       : 7
  106. Format                                   : UTF-8
  107. Codec ID                                 : S_TEXT/UTF8
  108. Codec ID/Info                            : UTF-8 Plain Text
  109. Duration                                 : 1 h 28 min
  110. Bit rate                                 : 87 b/s
  111. Frame rate                               : 0.249 FPS
  112. Count of elements                        : 1324
  113. Stream size                              : 56.7 KiB (0%)
  114. Language                                 : Czech
  115. Default                                  : No
  116. Forced                                   : No
  117. Text #6
  118. ID                                       : 8
  119. Format                                   : UTF-8
  120. Codec ID                                 : S_TEXT/UTF8
  121. Codec ID/Info                            : UTF-8 Plain Text
  122. Duration                                 : 1 h 28 min
  123. Bit rate                                 : 79 b/s
  124. Frame rate                               : 0.220 FPS
  125. Count of elements                        : 1170
  126. Stream size                              : 51.3 KiB (0%)
  127. Language                                 : Danish
  128. Default                                  : No
  129. Forced                                   : No
  130. Text #7
  131. ID                                       : 9
  132. Format                                   : UTF-8
  133. Codec ID                                 : S_TEXT/UTF8
  134. Codec ID/Info                            : UTF-8 Plain Text
  135. Duration                                 : 1 h 28 min
  136. Bit rate                                 : 88 b/s
  137. Frame rate                               : 0.260 FPS
  138. Count of elements                        : 1384
  139. Stream size                              : 57.5 KiB (0%)
  140. Language                                 : German
  141. Default                                  : No
  142. Forced                                   : No
  143. Text #8
  144. ID                                       : 10
  145. Format                                   : UTF-8
  146. Codec ID                                 : S_TEXT/UTF8
  147. Codec ID/Info                            : UTF-8 Plain Text
  148. Duration                                 : 1 h 27 min
  149. Bit rate                                 : 143 b/s
  150. Frame rate                               : 0.248 FPS
  151. Count of elements                        : 1297
  152. Stream size                              : 91.6 KiB (0%)
  153. Language                                 : Greek
  154. Default                                  : No
  155. Forced                                   : No
  156. Text #9
  157. ID                                       : 11
  158. Format                                   : UTF-8
  159. Codec ID                                 : S_TEXT/UTF8
  160. Codec ID/Info                            : UTF-8 Plain Text
  161. Duration                                 : 1 h 28 min
  162. Bit rate                                 : 81 b/s
  163. Frame rate                               : 0.232 FPS
  164. Count of elements                        : 1233
  165. Stream size                              : 52.8 KiB (0%)
  166. Title                                    : Latin American
  167. Language                                 : Spanish (Latin America)
  168. Default                                  : No
  169. Forced                                   : No
  170. Text #10
  171. ID                                       : 12
  172. Format                                   : UTF-8
  173. Codec ID                                 : S_TEXT/UTF8
  174. Codec ID/Info                            : UTF-8 Plain Text
  175. Duration                                 : 1 h 28 min
  176. Bit rate                                 : 79 b/s
  177. Frame rate                               : 0.250 FPS
  178. Count of elements                        : 1328
  179. Stream size                              : 51.5 KiB (0%)
  180. Language                                 : Spanish (ES)
  181. Default                                  : No
  182. Forced                                   : No
  183. Text #11
  184. ID                                       : 13
  185. Format                                   : UTF-8
  186. Codec ID                                 : S_TEXT/UTF8
  187. Codec ID/Info                            : UTF-8 Plain Text
  188. Duration                                 : 1 h 28 min
  189. Bit rate                                 : 81 b/s
  190. Frame rate                               : 0.209 FPS
  191. Count of elements                        : 1111
  192. Stream size                              : 52.9 KiB (0%)
  193. Language                                 : Finnish
  194. Default                                  : No
  195. Forced                                   : No
  196. Text #12
  197. ID                                       : 14
  198. Format                                   : UTF-8
  199. Codec ID                                 : S_TEXT/UTF8
  200. Codec ID/Info                            : UTF-8 Plain Text
  201. Duration                                 : 1 h 28 min
  202. Bit rate                                 : 84 b/s
  203. Frame rate                               : 0.244 FPS
  204. Count of elements                        : 1295
  205. Stream size                              : 54.8 KiB (0%)
  206. Language                                 : French
  207. Default                                  : No
  208. Forced                                   : No
  209. Text #13
  210. ID                                       : 15
  211. Format                                   : UTF-8
  212. Codec ID                                 : S_TEXT/UTF8
  213. Codec ID/Info                            : UTF-8 Plain Text
  214. Duration                                 : 1 h 28 min
  215. Bit rate                                 : 126 b/s
  216. Frame rate                               : 0.249 FPS
  217. Count of elements                        : 1325
  218. Stream size                              : 82.0 KiB (0%)
  219. Language                                 : Hebrew
  220. Default                                  : No
  221. Forced                                   : No
  222. Text #14
  223. ID                                       : 16
  224. Format                                   : UTF-8
  225. Codec ID                                 : S_TEXT/UTF8
  226. Codec ID/Info                            : UTF-8 Plain Text
  227. Duration                                 : 1 h 28 min
  228. Bit rate                                 : 72 b/s
  229. Frame rate                               : 0.241 FPS
  230. Count of elements                        : 1279
  231. Stream size                              : 47.1 KiB (0%)
  232. Language                                 : Croatian
  233. Default                                  : No
  234. Forced                                   : No
  235. Text #15
  236. ID                                       : 17
  237. Format                                   : UTF-8
  238. Codec ID                                 : S_TEXT/UTF8
  239. Codec ID/Info                            : UTF-8 Plain Text
  240. Duration                                 : 1 h 28 min
  241. Bit rate                                 : 89 b/s
  242. Frame rate                               : 0.249 FPS
  243. Count of elements                        : 1323
  244. Stream size                              : 58.2 KiB (0%)
  245. Language                                 : Hungarian
  246. Default                                  : No
  247. Forced                                   : No
  248. Text #16
  249. ID                                       : 18
  250. Format                                   : UTF-8
  251. Codec ID                                 : S_TEXT/UTF8
  252. Codec ID/Info                            : UTF-8 Plain Text
  253. Duration                                 : 1 h 28 min
  254. Bit rate                                 : 81 b/s
  255. Frame rate                               : 0.251 FPS
  256. Count of elements                        : 1335
  257. Stream size                              : 52.6 KiB (0%)
  258. Language                                 : Indonesian
  259. Default                                  : No
  260. Forced                                   : No
  261. Text #17
  262. ID                                       : 19
  263. Format                                   : UTF-8
  264. Codec ID                                 : S_TEXT/UTF8
  265. Codec ID/Info                            : UTF-8 Plain Text
  266. Duration                                 : 1 h 28 min
  267. Bit rate                                 : 89 b/s
  268. Frame rate                               : 0.248 FPS
  269. Count of elements                        : 1318
  270. Stream size                              : 57.8 KiB (0%)
  271. Language                                 : Italian
  272. Default                                  : No
  273. Forced                                   : No
  274. Text #18
  275. ID                                       : 20
  276. Format                                   : UTF-8
  277. Codec ID                                 : S_TEXT/UTF8
  278. Codec ID/Info                            : UTF-8 Plain Text
  279. Duration                                 : 1 h 28 min
  280. Bit rate                                 : 111 b/s
  281. Frame rate                               : 0.266 FPS
  282. Count of elements                        : 1416
  283. Stream size                              : 72.5 KiB (0%)
  284. Language                                 : Japanese
  285. Default                                  : No
  286. Forced                                   : No
  287. Text #19
  288. ID                                       : 21
  289. Format                                   : UTF-8
  290. Codec ID                                 : S_TEXT/UTF8
  291. Codec ID/Info                            : UTF-8 Plain Text
  292. Duration                                 : 1 h 28 min
  293. Bit rate                                 : 109 b/s
  294. Frame rate                               : 0.267 FPS
  295. Count of elements                        : 1417
  296. Stream size                              : 71.2 KiB (0%)
  297. Language                                 : Korean
  298. Default                                  : No
  299. Forced                                   : No
  300. Text #20
  301. ID                                       : 22
  302. Format                                   : UTF-8
  303. Codec ID                                 : S_TEXT/UTF8
  304. Codec ID/Info                            : UTF-8 Plain Text
  305. Duration                                 : 1 h 28 min
  306. Bit rate                                 : 85 b/s
  307. Frame rate                               : 0.252 FPS
  308. Count of elements                        : 1338
  309. Stream size                              : 55.2 KiB (0%)
  310. Language                                 : Malay
  311. Default                                  : No
  312. Forced                                   : No
  313. Text #21
  314. ID                                       : 23
  315. Format                                   : UTF-8
  316. Codec ID                                 : S_TEXT/UTF8
  317. Codec ID/Info                            : UTF-8 Plain Text
  318. Duration                                 : 1 h 28 min
  319. Bit rate                                 : 76 b/s
  320. Frame rate                               : 0.198 FPS
  321. Count of elements                        : 1053
  322. Stream size                              : 49.7 KiB (0%)
  323. Language                                 : Norwegian Bokmal
  324. Default                                  : No
  325. Forced                                   : No
  326. Text #22
  327. ID                                       : 24
  328. Format                                   : UTF-8
  329. Codec ID                                 : S_TEXT/UTF8
  330. Codec ID/Info                            : UTF-8 Plain Text
  331. Duration                                 : 1 h 28 min
  332. Bit rate                                 : 84 b/s
  333. Frame rate                               : 0.222 FPS
  334. Count of elements                        : 1179
  335. Stream size                              : 54.6 KiB (0%)
  336. Language                                 : Dutch
  337. Default                                  : No
  338. Forced                                   : No
  339. Text #23
  340. ID                                       : 25
  341. Format                                   : UTF-8
  342. Codec ID                                 : S_TEXT/UTF8
  343. Codec ID/Info                            : UTF-8 Plain Text
  344. Duration                                 : 1 h 28 min
  345. Bit rate                                 : 66 b/s
  346. Frame rate                               : 0.245 FPS
  347. Count of elements                        : 1302
  348. Stream size                              : 42.9 KiB (0%)
  349. Language                                 : Polish
  350. Default                                  : No
  351. Forced                                   : No
  352. Text #24
  353. ID                                       : 26
  354. Format                                   : UTF-8
  355. Codec ID                                 : S_TEXT/UTF8
  356. Codec ID/Info                            : UTF-8 Plain Text
  357. Duration                                 : 1 h 28 min
  358. Bit rate                                 : 81 b/s
  359. Frame rate                               : 0.248 FPS
  360. Count of elements                        : 1317
  361. Stream size                              : 53.0 KiB (0%)
  362. Title                                    : Brazilian
  363. Language                                 : Portuguese (BR)
  364. Default                                  : No
  365. Forced                                   : No
  366. Text #25
  367. ID                                       : 27
  368. Format                                   : UTF-8
  369. Codec ID                                 : S_TEXT/UTF8
  370. Codec ID/Info                            : UTF-8 Plain Text
  371. Duration                                 : 1 h 28 min
  372. Bit rate                                 : 87 b/s
  373. Frame rate                               : 0.247 FPS
  374. Count of elements                        : 1313
  375. Stream size                              : 56.9 KiB (0%)
  376. Language                                 : Portuguese (PT)
  377. Default                                  : No
  378. Forced                                   : No
  379. Text #26
  380. ID                                       : 28
  381. Format                                   : UTF-8
  382. Codec ID                                 : S_TEXT/UTF8
  383. Codec ID/Info                            : UTF-8 Plain Text
  384. Duration                                 : 1 h 28 min
  385. Bit rate                                 : 92 b/s
  386. Frame rate                               : 0.242 FPS
  387. Count of elements                        : 1285
  388. Stream size                              : 60.3 KiB (0%)
  389. Language                                 : Romanian
  390. Default                                  : No
  391. Forced                                   : No
  392. Text #27
  393. ID                                       : 29
  394. Format                                   : UTF-8
  395. Codec ID                                 : S_TEXT/UTF8
  396. Codec ID/Info                            : UTF-8 Plain Text
  397. Duration                                 : 1 h 28 min
  398. Bit rate                                 : 145 b/s
  399. Frame rate                               : 0.240 FPS
  400. Count of elements                        : 1276
  401. Stream size                              : 94.3 KiB (0%)
  402. Language                                 : Russian
  403. Default                                  : No
  404. Forced                                   : No
  405. Text #28
  406. ID                                       : 30
  407. Format                                   : UTF-8
  408. Codec ID                                 : S_TEXT/UTF8
  409. Codec ID/Info                            : UTF-8 Plain Text
  410. Duration                                 : 1 h 28 min
  411. Bit rate                                 : 80 b/s
  412. Frame rate                               : 0.225 FPS
  413. Count of elements                        : 1195
  414. Stream size                              : 52.4 KiB (0%)
  415. Language                                 : Swedish
  416. Default                                  : No
  417. Forced                                   : No
  418. Text #29
  419. ID                                       : 31
  420. Format                                   : UTF-8
  421. Codec ID                                 : S_TEXT/UTF8
  422. Codec ID/Info                            : UTF-8 Plain Text
  423. Duration                                 : 1 h 28 min
  424. Bit rate                                 : 225 b/s
  425. Frame rate                               : 0.250 FPS
  426. Count of elements                        : 1329
  427. Stream size                              : 146 KiB (0%)
  428. Language                                 : Thai
  429. Default                                  : No
  430. Forced                                   : No
  431. Text #30
  432. ID                                       : 32
  433. Format                                   : UTF-8
  434. Codec ID                                 : S_TEXT/UTF8
  435. Codec ID/Info                            : UTF-8 Plain Text
  436. Duration                                 : 1 h 28 min
  437. Bit rate                                 : 84 b/s
  438. Frame rate                               : 0.244 FPS
  439. Count of elements                        : 1298
  440. Stream size                              : 54.8 KiB (0%)
  441. Language                                 : Turkish
  442. Default                                  : No
  443. Forced                                   : No
  444. Text #31
  445. ID                                       : 33
  446. Format                                   : UTF-8
  447. Codec ID                                 : S_TEXT/UTF8
  448. Codec ID/Info                            : UTF-8 Plain Text
  449. Duration                                 : 1 h 28 min
  450. Bit rate                                 : 152 b/s
  451. Frame rate                               : 0.239 FPS
  452. Count of elements                        : 1273
  453. Stream size                              : 98.9 KiB (0%)
  454. Language                                 : Ukrainian
  455. Default                                  : No
  456. Forced                                   : No
  457. Text #32
  458. ID                                       : 34
  459. Format                                   : UTF-8
  460. Codec ID                                 : S_TEXT/UTF8
  461. Codec ID/Info                            : UTF-8 Plain Text
  462. Duration                                 : 1 h 28 min
  463. Bit rate                                 : 118 b/s
  464. Frame rate                               : 0.256 FPS
  465. Count of elements                        : 1360
  466. Stream size                              : 76.6 KiB (0%)
  467. Language                                 : Vietnamese
  468. Default                                  : No
  469. Forced                                   : No
  470. Text #33
  471. ID                                       : 35
  472. Format                                   : UTF-8
  473. Codec ID                                 : S_TEXT/UTF8
  474. Codec ID/Info                            : UTF-8 Plain Text
  475. Duration                                 : 1 h 28 min
  476. Bit rate                                 : 82 b/s
  477. Frame rate                               : 0.252 FPS
  478. Count of elements                        : 1341
  479. Stream size                              : 53.8 KiB (0%)
  480. Title                                    : Simplified
  481. Language                                 : Chinese (Simplied)
  482. Default                                  : No
  483. Forced                                   : No
  484. Text #34
  485. ID                                       : 36
  486. Format                                   : UTF-8
  487. Codec ID                                 : S_TEXT/UTF8
  488. Codec ID/Info                            : UTF-8 Plain Text
  489. Duration                                 : 1 h 28 min
  490. Bit rate                                 : 77 b/s
  491. Frame rate                               : 0.255 FPS
  492. Count of elements                        : 1357
  493. Stream size                              : 50.3 KiB (0%)
  494. Title                                    : Traditional
  495. Language                                 : Chinese (Traditional)
  496. Default                                  : No
  497. Forced                                   : No
  498. Menu
  499. 01:27:28.000                             : en:End Credits
复制代码











Downfall.The.Case.Against.Boeing.2022.2160p.NF.WEB-DL.x265.10bit.HDR.DDP5.1-SMURF.torrent (24.52 KB, 下载次数: 0)
回复

使用道具 举报

懒得打字嘛,点击右侧快捷回复 【右侧内容,后台自定义】
您需要登录后才可以回帖 登录 | 立即注册

本版积分规则

Archiver|手机版|小黑屋| 中国高清网 |网站地图 

GMT+8, 2023-1-31 19:12 , Processed in 0.138450 second(s), 26 queries .

Powered by HDchina X3.4

Copyright 2017-2019©HDchina.All right reserved

返回顶部 联系我们