查看: 73|回复: 0

[2160p-WEB] 一落千丈:波音大调查[中文字幕].Downfall.The.Case.Against.Boeing.2022.2160p.NF.WEB-DL.DDP5.1.DV.MKV.x265-SMURF 11.88GB

[复制链接]
蓝光币
80 枚
发表于 2023-1-19 19:36:09 | 显示全部楼层 |阅读模式


◎标  题 一落千丈:波音大观察
◎译  名 坠:波音大观察(台)
◎片  名 Downfall: The Case Against Boeing
◎年  代 2022
◎产  地 美国
◎类  别 记载片
◎语  言 英语
◎上映日期 2022-02-18(美国)
◎IMDb评分 7.4/10 (11552人评价)
◎IMDb链接 https://www.imdb.com/title/tt11893274/
◎豆瓣评分 8.2/10 (9486人评价)
◎豆瓣链接 https://movie.douban.com/subject/35694785/
◎片  长 89分钟
◎导  演 罗瑞·肯尼迪 Rory Kennedy
◎编  剧 马克·贝利 Mark Bailey
       凯文·麦卡莱斯特 Keven McAlester
◎演  员 莱斯特·赫特 Lester Holt
       玛丽亚·巴尔蒂罗莫 Maria Bartiromo
       Peter Jennings Peter Jennings
       切斯利·舒伦伯格 Chesley Sullenberger
       理查德·恩格尔 Richard Engel
       Peter A. DeFazio Peter A. DeFazio
       唐纳德·特朗普 Donald Trump
       赵小兰 Elaine L. Chao
◎简  介
  在《一落千丈:波音大观察》这部使人毛骨悚然的记载片中,曾获奥斯卡提名的电影人罗瑞·肯尼迪揭穿了企业对题目标漠视和贪心若何致使两架波音 MAX 737 飞机在短短五个月内相继失事。在航空专家、消息记者、前波音职员、美国国会和受害者家属的主导下,这部电影揭开了一家已经备受推重的公司背后一味削减本钱和掩人线人的文化。《一落千丈:波音大观察》痛斥来自华尔街的废弛影响,并指出美国企业所秉持的理念的危险之处 — 偶然这甚至事关人命。本片由罗瑞·肯尼迪执导和建造,马克·贝利建造和结合编剧,布莱恩·格拉泽和朗·霍华德监制。
  1. Video
  2. ID                                       : 1
  3. Format                                   : HEVC
  4. Format/Info                              : High Efficiency Video Coding
  5. Format profile                           : Main [email protected]@Main
  6. HDR format                               : Dolby Vision, Version 1.0, dvhe.05.06, BL+RPU
  7. Codec ID                                 : V_MPEGH/ISO/HEVC
  8. Duration                                 : 1 h 30 min
  9. Bit rate                                 : 18.2 Mb/s
  10. Width                                    : 3 840 pixels
  11. Height                                   : 2 160 pixels
  12. Display aspect ratio                     : 16:9
  13. Frame rate mode                          : Constant
  14. Frame rate                               : 23.976 (24000/1001) FPS
  15. Color space                              : YUV
  16. Chroma subsampling                       : 4:2:0
  17. Bit depth                                : 10 bits
  18. Bits/(Pixel*Frame)                       : 0.092
  19. Stream size                              : 11.5 GiB (97%)
  20. Language                                 : English
  21. Default                                  : Yes
  22. Forced                                   : No
  23. Color range                              : Full
  24. Audio
  25. ID                                       : 2
  26. Format                                   : E-AC-3
  27. Format/Info                              : Enhanced AC-3
  28. Commercial name                          : Dolby Digital Plus
  29. Codec ID                                 : A_EAC3
  30. Duration                                 : 1 h 30 min
  31. Bit rate mode                            : Constant
  32. Bit rate                                 : 640 kb/s
  33. Channel(s)                               : 6 channels
  34. Channel layout                           : L R C LFE Ls Rs
  35. Sampling rate                            : 48.0 kHz
  36. Frame rate                               : 31.250 FPS (1536 SPF)
  37. Compression mode                         : Lossy
  38. Stream size                              : 413 MiB (3%)
  39. Language                                 : English
  40. Service kind                             : Complete Main
  41. Default                                  : Yes
  42. Forced                                   : No
  43. Text #1
  44. ID                                       : 3
  45. Format                                   : UTF-8
  46. Codec ID                                 : S_TEXT/UTF8
  47. Codec ID/Info                            : UTF-8 Plain Text
  48. Duration                                 : 47 min 49 s
  49. Bit rate                                 : 3 b/s
  50. Frame rate                               : 0.009 FPS
  51. Count of elements                        : 25
  52. Stream size                              : 1.31 KiB (0%)
  53. Title                                    : Forced
  54. Language                                 : English
  55. Default                                  : Yes
  56. Forced                                   : Yes
  57. Text #2
  58. ID                                       : 4
  59. Format                                   : UTF-8
  60. Codec ID                                 : S_TEXT/UTF8
  61. Codec ID/Info                            : UTF-8 Plain Text
  62. Duration                                 : 1 h 25 min
  63. Bit rate                                 : 89 b/s
  64. Frame rate                               : 0.250 FPS
  65. Count of elements                        : 1285
  66. Stream size                              : 56.4 KiB (0%)
  67. Language                                 : English
  68. Default                                  : No
  69. Forced                                   : No
  70. Text #3
  71. ID                                       : 5
  72. Format                                   : UTF-8
  73. Codec ID                                 : S_TEXT/UTF8
  74. Codec ID/Info                            : UTF-8 Plain Text
  75. Duration                                 : 1 h 26 min
  76. Bit rate                                 : 93 b/s
  77. Frame rate                               : 0.256 FPS
  78. Count of elements                        : 1326
  79. Stream size                              : 59.5 KiB (0%)
  80. Title                                    : SDH
  81. Language                                 : English
  82. Default                                  : No
  83. Forced                                   : No
  84. Text #4
  85. ID                                       : 6
  86. Format                                   : UTF-8
  87. Codec ID                                 : S_TEXT/UTF8
  88. Codec ID/Info                            : UTF-8 Plain Text
  89. Duration                                 : 1 h 27 min
  90. Bit rate                                 : 139 b/s
  91. Frame rate                               : 0.253 FPS
  92. Count of elements                        : 1325
  93. Stream size                              : 89.2 KiB (0%)
  94. Language                                 : Arabic
  95. Default                                  : No
  96. Forced                                   : No
  97. Text #5
  98. ID                                       : 7
  99. Format                                   : UTF-8
  100. Codec ID                                 : S_TEXT/UTF8
  101. Codec ID/Info                            : UTF-8 Plain Text
  102. Duration                                 : 1 h 28 min
  103. Bit rate                                 : 87 b/s
  104. Frame rate                               : 0.249 FPS
  105. Count of elements                        : 1324
  106. Stream size                              : 56.7 KiB (0%)
  107. Language                                 : Czech
  108. Default                                  : No
  109. Forced                                   : No
  110. Text #6
  111. ID                                       : 8
  112. Format                                   : UTF-8
  113. Codec ID                                 : S_TEXT/UTF8
  114. Codec ID/Info                            : UTF-8 Plain Text
  115. Duration                                 : 1 h 28 min
  116. Bit rate                                 : 79 b/s
  117. Frame rate                               : 0.220 FPS
  118. Count of elements                        : 1170
  119. Stream size                              : 51.3 KiB (0%)
  120. Language                                 : Danish
  121. Default                                  : No
  122. Forced                                   : No
  123. Text #7
  124. ID                                       : 9
  125. Format                                   : UTF-8
  126. Codec ID                                 : S_TEXT/UTF8
  127. Codec ID/Info                            : UTF-8 Plain Text
  128. Duration                                 : 1 h 28 min
  129. Bit rate                                 : 88 b/s
  130. Frame rate                               : 0.260 FPS
  131. Count of elements                        : 1384
  132. Stream size                              : 57.5 KiB (0%)
  133. Language                                 : German
  134. Default                                  : No
  135. Forced                                   : No
  136. Text #8
  137. ID                                       : 10
  138. Format                                   : UTF-8
  139. Codec ID                                 : S_TEXT/UTF8
  140. Codec ID/Info                            : UTF-8 Plain Text
  141. Duration                                 : 1 h 27 min
  142. Bit rate                                 : 143 b/s
  143. Frame rate                               : 0.248 FPS
  144. Count of elements                        : 1297
  145. Stream size                              : 91.6 KiB (0%)
  146. Language                                 : Greek
  147. Default                                  : No
  148. Forced                                   : No
  149. Text #9
  150. ID                                       : 11
  151. Format                                   : UTF-8
  152. Codec ID                                 : S_TEXT/UTF8
  153. Codec ID/Info                            : UTF-8 Plain Text
  154. Duration                                 : 1 h 28 min
  155. Bit rate                                 : 81 b/s
  156. Frame rate                               : 0.232 FPS
  157. Count of elements                        : 1233
  158. Stream size                              : 52.8 KiB (0%)
  159. Title                                    : Latin American
  160. Language                                 : Spanish (Latin America)
  161. Default                                  : No
  162. Forced                                   : No
  163. Text #10
  164. ID                                       : 12
  165. Format                                   : UTF-8
  166. Codec ID                                 : S_TEXT/UTF8
  167. Codec ID/Info                            : UTF-8 Plain Text
  168. Duration                                 : 1 h 28 min
  169. Bit rate                                 : 79 b/s
  170. Frame rate                               : 0.250 FPS
  171. Count of elements                        : 1328
  172. Stream size                              : 51.5 KiB (0%)
  173. Language                                 : Spanish (ES)
  174. Default                                  : No
  175. Forced                                   : No
  176. Text #11
  177. ID                                       : 13
  178. Format                                   : UTF-8
  179. Codec ID                                 : S_TEXT/UTF8
  180. Codec ID/Info                            : UTF-8 Plain Text
  181. Duration                                 : 1 h 28 min
  182. Bit rate                                 : 81 b/s
  183. Frame rate                               : 0.209 FPS
  184. Count of elements                        : 1111
  185. Stream size                              : 52.9 KiB (0%)
  186. Language                                 : Finnish
  187. Default                                  : No
  188. Forced                                   : No
  189. Text #12
  190. ID                                       : 14
  191. Format                                   : UTF-8
  192. Codec ID                                 : S_TEXT/UTF8
  193. Codec ID/Info                            : UTF-8 Plain Text
  194. Duration                                 : 1 h 28 min
  195. Bit rate                                 : 84 b/s
  196. Frame rate                               : 0.244 FPS
  197. Count of elements                        : 1295
  198. Stream size                              : 54.8 KiB (0%)
  199. Language                                 : French
  200. Default                                  : No
  201. Forced                                   : No
  202. Text #13
  203. ID                                       : 15
  204. Format                                   : UTF-8
  205. Codec ID                                 : S_TEXT/UTF8
  206. Codec ID/Info                            : UTF-8 Plain Text
  207. Duration                                 : 1 h 28 min
  208. Bit rate                                 : 126 b/s
  209. Frame rate                               : 0.249 FPS
  210. Count of elements                        : 1325
  211. Stream size                              : 82.0 KiB (0%)
  212. Language                                 : Hebrew
  213. Default                                  : No
  214. Forced                                   : No
  215. Text #14
  216. ID                                       : 16
  217. Format                                   : UTF-8
  218. Codec ID                                 : S_TEXT/UTF8
  219. Codec ID/Info                            : UTF-8 Plain Text
  220. Duration                                 : 1 h 28 min
  221. Bit rate                                 : 72 b/s
  222. Frame rate                               : 0.241 FPS
  223. Count of elements                        : 1279
  224. Stream size                              : 47.1 KiB (0%)
  225. Language                                 : Croatian
  226. Default                                  : No
  227. Forced                                   : No
  228. Text #15
  229. ID                                       : 17
  230. Format                                   : UTF-8
  231. Codec ID                                 : S_TEXT/UTF8
  232. Codec ID/Info                            : UTF-8 Plain Text
  233. Duration                                 : 1 h 28 min
  234. Bit rate                                 : 89 b/s
  235. Frame rate                               : 0.249 FPS
  236. Count of elements                        : 1323
  237. Stream size                              : 58.2 KiB (0%)
  238. Language                                 : Hungarian
  239. Default                                  : No
  240. Forced                                   : No
  241. Text #16
  242. ID                                       : 18
  243. Format                                   : UTF-8
  244. Codec ID                                 : S_TEXT/UTF8
  245. Codec ID/Info                            : UTF-8 Plain Text
  246. Duration                                 : 1 h 28 min
  247. Bit rate                                 : 81 b/s
  248. Frame rate                               : 0.251 FPS
  249. Count of elements                        : 1335
  250. Stream size                              : 52.6 KiB (0%)
  251. Language                                 : Indonesian
  252. Default                                  : No
  253. Forced                                   : No
  254. Text #17
  255. ID                                       : 19
  256. Format                                   : UTF-8
  257. Codec ID                                 : S_TEXT/UTF8
  258. Codec ID/Info                            : UTF-8 Plain Text
  259. Duration                                 : 1 h 28 min
  260. Bit rate                                 : 89 b/s
  261. Frame rate                               : 0.248 FPS
  262. Count of elements                        : 1318
  263. Stream size                              : 57.8 KiB (0%)
  264. Language                                 : Italian
  265. Default                                  : No
  266. Forced                                   : No
  267. Text #18
  268. ID                                       : 20
  269. Format                                   : UTF-8
  270. Codec ID                                 : S_TEXT/UTF8
  271. Codec ID/Info                            : UTF-8 Plain Text
  272. Duration                                 : 1 h 28 min
  273. Bit rate                                 : 111 b/s
  274. Frame rate                               : 0.266 FPS
  275. Count of elements                        : 1416
  276. Stream size                              : 72.5 KiB (0%)
  277. Language                                 : Japanese
  278. Default                                  : No
  279. Forced                                   : No
  280. Text #19
  281. ID                                       : 21
  282. Format                                   : UTF-8
  283. Codec ID                                 : S_TEXT/UTF8
  284. Codec ID/Info                            : UTF-8 Plain Text
  285. Duration                                 : 1 h 28 min
  286. Bit rate                                 : 109 b/s
  287. Frame rate                               : 0.267 FPS
  288. Count of elements                        : 1417
  289. Stream size                              : 71.2 KiB (0%)
  290. Language                                 : Korean
  291. Default                                  : No
  292. Forced                                   : No
  293. Text #20
  294. ID                                       : 22
  295. Format                                   : UTF-8
  296. Codec ID                                 : S_TEXT/UTF8
  297. Codec ID/Info                            : UTF-8 Plain Text
  298. Duration                                 : 1 h 28 min
  299. Bit rate                                 : 85 b/s
  300. Frame rate                               : 0.252 FPS
  301. Count of elements                        : 1338
  302. Stream size                              : 55.2 KiB (0%)
  303. Language                                 : Malay
  304. Default                                  : No
  305. Forced                                   : No
  306. Text #21
  307. ID                                       : 23
  308. Format                                   : UTF-8
  309. Codec ID                                 : S_TEXT/UTF8
  310. Codec ID/Info                            : UTF-8 Plain Text
  311. Duration                                 : 1 h 28 min
  312. Bit rate                                 : 76 b/s
  313. Frame rate                               : 0.198 FPS
  314. Count of elements                        : 1053
  315. Stream size                              : 49.7 KiB (0%)
  316. Language                                 : Norwegian Bokmal
  317. Default                                  : No
  318. Forced                                   : No
  319. Text #22
  320. ID                                       : 24
  321. Format                                   : UTF-8
  322. Codec ID                                 : S_TEXT/UTF8
  323. Codec ID/Info                            : UTF-8 Plain Text
  324. Duration                                 : 1 h 28 min
  325. Bit rate                                 : 84 b/s
  326. Frame rate                               : 0.222 FPS
  327. Count of elements                        : 1179
  328. Stream size                              : 54.6 KiB (0%)
  329. Language                                 : Dutch
  330. Default                                  : No
  331. Forced                                   : No
  332. Text #23
  333. ID                                       : 25
  334. Format                                   : UTF-8
  335. Codec ID                                 : S_TEXT/UTF8
  336. Codec ID/Info                            : UTF-8 Plain Text
  337. Duration                                 : 1 h 28 min
  338. Bit rate                                 : 66 b/s
  339. Frame rate                               : 0.245 FPS
  340. Count of elements                        : 1302
  341. Stream size                              : 42.9 KiB (0%)
  342. Language                                 : Polish
  343. Default                                  : No
  344. Forced                                   : No
  345. Text #24
  346. ID                                       : 26
  347. Format                                   : UTF-8
  348. Codec ID                                 : S_TEXT/UTF8
  349. Codec ID/Info                            : UTF-8 Plain Text
  350. Duration                                 : 1 h 28 min
  351. Bit rate                                 : 81 b/s
  352. Frame rate                               : 0.248 FPS
  353. Count of elements                        : 1317
  354. Stream size                              : 53.0 KiB (0%)
  355. Title                                    : Brazilian
  356. Language                                 : Portuguese (BR)
  357. Default                                  : No
  358. Forced                                   : No
  359. Text #25
  360. ID                                       : 27
  361. Format                                   : UTF-8
  362. Codec ID                                 : S_TEXT/UTF8
  363. Codec ID/Info                            : UTF-8 Plain Text
  364. Duration                                 : 1 h 28 min
  365. Bit rate                                 : 87 b/s
  366. Frame rate                               : 0.247 FPS
  367. Count of elements                        : 1313
  368. Stream size                              : 56.9 KiB (0%)
  369. Language                                 : Portuguese (PT)
  370. Default                                  : No
  371. Forced                                   : No
  372. Text #26
  373. ID                                       : 28
  374. Format                                   : UTF-8
  375. Codec ID                                 : S_TEXT/UTF8
  376. Codec ID/Info                            : UTF-8 Plain Text
  377. Duration                                 : 1 h 28 min
  378. Bit rate                                 : 92 b/s
  379. Frame rate                               : 0.242 FPS
  380. Count of elements                        : 1285
  381. Stream size                              : 60.3 KiB (0%)
  382. Language                                 : Romanian
  383. Default                                  : No
  384. Forced                                   : No
  385. Text #27
  386. ID                                       : 29
  387. Format                                   : UTF-8
  388. Codec ID                                 : S_TEXT/UTF8
  389. Codec ID/Info                            : UTF-8 Plain Text
  390. Duration                                 : 1 h 28 min
  391. Bit rate                                 : 145 b/s
  392. Frame rate                               : 0.240 FPS
  393. Count of elements                        : 1276
  394. Stream size                              : 94.3 KiB (0%)
  395. Language                                 : Russian
  396. Default                                  : No
  397. Forced                                   : No
  398. Text #28
  399. ID                                       : 30
  400. Format                                   : UTF-8
  401. Codec ID                                 : S_TEXT/UTF8
  402. Codec ID/Info                            : UTF-8 Plain Text
  403. Duration                                 : 1 h 28 min
  404. Bit rate                                 : 80 b/s
  405. Frame rate                               : 0.225 FPS
  406. Count of elements                        : 1195
  407. Stream size                              : 52.4 KiB (0%)
  408. Language                                 : Swedish
  409. Default                                  : No
  410. Forced                                   : No
  411. Text #29
  412. ID                                       : 31
  413. Format                                   : UTF-8
  414. Codec ID                                 : S_TEXT/UTF8
  415. Codec ID/Info                            : UTF-8 Plain Text
  416. Duration                                 : 1 h 28 min
  417. Bit rate                                 : 225 b/s
  418. Frame rate                               : 0.250 FPS
  419. Count of elements                        : 1329
  420. Stream size                              : 146 KiB (0%)
  421. Language                                 : Thai
  422. Default                                  : No
  423. Forced                                   : No
  424. Text #30
  425. ID                                       : 32
  426. Format                                   : UTF-8
  427. Codec ID                                 : S_TEXT/UTF8
  428. Codec ID/Info                            : UTF-8 Plain Text
  429. Duration                                 : 1 h 28 min
  430. Bit rate                                 : 84 b/s
  431. Frame rate                               : 0.244 FPS
  432. Count of elements                        : 1298
  433. Stream size                              : 54.8 KiB (0%)
  434. Language                                 : Turkish
  435. Default                                  : No
  436. Forced                                   : No
  437. Text #31
  438. ID                                       : 33
  439. Format                                   : UTF-8
  440. Codec ID                                 : S_TEXT/UTF8
  441. Codec ID/Info                            : UTF-8 Plain Text
  442. Duration                                 : 1 h 28 min
  443. Bit rate                                 : 152 b/s
  444. Frame rate                               : 0.239 FPS
  445. Count of elements                        : 1273
  446. Stream size                              : 98.9 KiB (0%)
  447. Language                                 : Ukrainian
  448. Default                                  : No
  449. Forced                                   : No
  450. Text #32
  451. ID                                       : 34
  452. Format                                   : UTF-8
  453. Codec ID                                 : S_TEXT/UTF8
  454. Codec ID/Info                            : UTF-8 Plain Text
  455. Duration                                 : 1 h 28 min
  456. Bit rate                                 : 118 b/s
  457. Frame rate                               : 0.256 FPS
  458. Count of elements                        : 1360
  459. Stream size                              : 76.6 KiB (0%)
  460. Language                                 : Vietnamese
  461. Default                                  : No
  462. Forced                                   : No
  463. Text #33
  464. ID                                       : 35
  465. Format                                   : UTF-8
  466. Codec ID                                 : S_TEXT/UTF8
  467. Codec ID/Info                            : UTF-8 Plain Text
  468. Duration                                 : 1 h 28 min
  469. Bit rate                                 : 82 b/s
  470. Frame rate                               : 0.252 FPS
  471. Count of elements                        : 1341
  472. Stream size                              : 53.8 KiB (0%)
  473. Title                                    : Simplified
  474. Language                                 : Chinese (Simplied)
  475. Default                                  : No
  476. Forced                                   : No
  477. Text #34
  478. ID                                       : 36
  479. Format                                   : UTF-8
  480. Codec ID                                 : S_TEXT/UTF8
  481. Codec ID/Info                            : UTF-8 Plain Text
  482. Duration                                 : 1 h 28 min
  483. Bit rate                                 : 77 b/s
  484. Frame rate                               : 0.255 FPS
  485. Count of elements                        : 1357
  486. Stream size                              : 50.3 KiB (0%)
  487. Title                                    : Traditional
  488. Language                                 : Chinese (Traditional)
  489. Default                                  : No
  490. Forced                                   : No
  491. Menu
  492. 01:27:28.000                             : en:End Credits
复制代码











Downfall.The.Case.Against.Boeing.2022.2160p.NF.WEB-DL.DDP5.1.DV.MKV.x265-SMURF.torrent (15.53 KB, 下载次数: 1)
回复

使用道具 举报

懒得打字嘛,点击右侧快捷回复 【右侧内容,后台自定义】
您需要登录后才可以回帖 登录 | 立即注册

本版积分规则

Archiver|手机版|小黑屋| 中国高清网 |网站地图 

GMT+8, 2023-1-31 18:51 , Processed in 0.136952 second(s), 26 queries .

Powered by HDchina X3.4

Copyright 2017-2019©HDchina.All right reserved

返回顶部 联系我们