查看: 84|回复: 0

[2160p-WEB] 忠诚.Devotion.2022.2160p.AMZN.WEB-DL.x265.8bit.SDR.DDP5.1.Atmos-CM 15.30GB

[复制链接]
蓝光币
80 枚
发表于 2023-1-19 19:36:07 | 显示全部楼层 |阅读模式


◎标  题 虔诚
◎译  名 虔诚:豪杰主义、友谊、牺牲的史诗故事 / 决战38度线(台) / Devotion: An Epic Story of Heroism /  Friendship /  and Sacrific
◎片  名 Devotion
◎年  代 2022
◎产  地 美国
◎类  别 剧情 / 行动 / 战争
◎语  言 英语 / 韩语
◎上映日期 2022-09-12(多伦多电影节) / 2022-10-28(美国)
◎IMDb评分 6.9/10 (941人评价)
◎IMDb链接 https://www.imdb.com/title/tt7693316/
◎豆瓣链接 https://movie.douban.com/subject/30163678/
◎片  长 138分钟
◎导  演 J·D·迪拉德 J.D. Dillard
◎编  剧 杰克·克莱恩 Jake Crane
       乔纳森·斯图尔特 Jonathan Stewart
       亚当·马科斯 Adam Makos
◎演  员 乔纳森·梅杰斯 Jonathan Majors
       格伦·鲍威尔 Glen Powell
       赛琳达·斯万 Serinda Swan
       托马斯·萨多斯基 Thomas Sadoski
       约瑟夫·克罗斯 Joseph Cross
       乔·乔纳斯 Joe Jonas
       达伦·卡加索夫 Daren Kagasoff
       斯宾瑟·内维尔 Spencer Neville
       马特·雷迪 Matt Riedy
       尼克·哈格罗弗 Nick Hargrove
       克里斯蒂娜·杰克逊 Christina Jackson
       阿德丁博·汤玛斯 Adetinpo Thomas
       迪安·丹顿 Dean Denton
       巴迪·沃特金斯 Buddy Watkins
       Todd Brown Todd Brown
       Julie Kessler Julie Kessler
       埃里克·梅塞施密特 Erik Messerschmidt
       威恩·托马斯 Wynn Thomas
◎简  介
  Black Label Media将把2015年亚当·马库斯的著作《虔诚:豪杰主义、友谊、牺牲的史诗故事》(Devotion: An Epic Story of Heroism, Friendship, and Sacrifice)搬上大银幕。小说围绕两名朝鲜战争的飞翔员展开,其中一位来自敷裕的英格兰家庭,另一个是来自密西西比黑人家庭。两人成为美国历史上顶尖的飞翔员。格伦·鲍威尔([隐藏人物])将参演影片。本片由杰克·克兰、乔纳森·斯图尔特打造剧本。
  1. Video
  2. ID                                       : 1
  3. Format                                   : HEVC
  4. Format/Info                              : High Efficiency Video Coding
  5. Format profile                           : [email protected]@Main
  6. Codec ID                                 : V_MPEGH/ISO/HEVC
  7. Duration                                 : 2 h 19 min
  8. Bit rate                                 : 15.0 Mb/s
  9. Width                                    : 3 840 pixels
  10. Height                                   : 1 744 pixels
  11. Display aspect ratio                     : 2.2:1
  12. Frame rate mode                          : Constant
  13. Frame rate                               : 23.976 (24000/1001) FPS
  14. Color space                              : YUV
  15. Chroma subsampling                       : 4:2:0
  16. Bit depth                                : 8 bits
  17. Bits/(Pixel*Frame)                       : 0.093
  18. Stream size                              : 14.6 GiB (95%)
  19. Language                                 : English
  20. Default                                  : Yes
  21. Forced                                   : No
  22. Color range                              : Limited
  23. Color primaries                          : BT.709
  24. Transfer characteristics                 : BT.709
  25. Matrix coefficients                      : BT.709
  26. Audio
  27. ID                                       : 2
  28. Format                                   : E-AC-3 JOC
  29. Format/Info                              : Enhanced AC-3 with Joint Object Coding
  30. Commercial name                          : Dolby Digital Plus with Dolby Atmos
  31. Codec ID                                 : A_EAC3
  32. Duration                                 : 2 h 19 min
  33. Bit rate mode                            : Constant
  34. Bit rate                                 : 768 kb/s
  35. Channel(s)                               : 6 channels
  36. Channel layout                           : L R C LFE Ls Rs
  37. Sampling rate                            : 48.0 kHz
  38. Frame rate                               : 31.250 FPS (1536 SPF)
  39. Compression mode                         : Lossy
  40. Stream size                              : 764 MiB (5%)
  41. Language                                 : English
  42. Service kind                             : Complete Main
  43. Default                                  : Yes
  44. Forced                                   : No
  45. Complexity index                         : 16
  46. Number of dynamic objects                : 15
  47. Bed channel count                        : 1 channel
  48. Bed channel configuration                : LFE
  49. Text #1
  50. ID                                       : 3
  51. Format                                   : UTF-8
  52. Codec ID                                 : S_TEXT/UTF8
  53. Codec ID/Info                            : UTF-8 Plain Text
  54. Duration                                 : 2 h 7 min
  55. Bit rate                                 : 53 b/s
  56. Frame rate                               : 0.218 FPS
  57. Count of elements                        : 1666
  58. Stream size                              : 49.5 KiB (0%)
  59. Title                                    : SDH
  60. Language                                 : English
  61. Default                                  : No
  62. Forced                                   : No
  63. Text #2
  64. ID                                       : 4
  65. Format                                   : UTF-8
  66. Codec ID                                 : S_TEXT/UTF8
  67. Codec ID/Info                            : UTF-8 Plain Text
  68. Duration                                 : 2 h 6 min
  69. Bit rate                                 : 46 b/s
  70. Frame rate                               : 0.187 FPS
  71. Count of elements                        : 1421
  72. Stream size                              : 43.0 KiB (0%)
  73. Language                                 : English
  74. Default                                  : No
  75. Forced                                   : No
  76. Text #3
  77. ID                                       : 5
  78. Format                                   : UTF-8
  79. Codec ID                                 : S_TEXT/UTF8
  80. Codec ID/Info                            : UTF-8 Plain Text
  81. Duration                                 : 2 h 18 min
  82. Bit rate                                 : 73 b/s
  83. Frame rate                               : 0.155 FPS
  84. Count of elements                        : 1285
  85. Stream size                              : 74.4 KiB (0%)
  86. Language                                 : Arabic
  87. Default                                  : No
  88. Forced                                   : No
  89. Menu
  90. 00:00:00.000                             : en:Chapter 01
  91. 00:05:55.146                             : en:Chapter 02
  92. 00:16:04.631                             : en:Chapter 03
  93. 00:24:10.116                             : en:Chapter 04
  94. 00:29:07.956                             : en:Chapter 05
  95. 00:40:14.414                             : en:Chapter 06
  96. 00:49:49.072                             : en:Chapter 07
  97. 00:56:15.709                             : en:Chapter 08
  98. 01:06:05.507                             : en:Chapter 09
  99. 01:11:36.171                             : en:Chapter 10
  100. 01:16:36.721                             : en:Chapter 11
  101. 01:24:02.083                             : en:Chapter 12
  102. 01:34:06.563                             : en:Chapter 13
  103. 01:42:00.412                             : en:Chapter 14
  104. 01:53:06.828                             : en:Chapter 15
  105. 02:02:53.248                             : en:Chapter 16
  106. 02:09:33.106                             : en:Chapter 17
复制代码











Devotion.2022.2160p.AMZN.WEB-DL.x265.8bit.SDR.DDP5.1.Atmos-CM.torrent (19.77 KB, 下载次数: 2)
回复

使用道具 举报

懒得打字嘛,点击右侧快捷回复 【右侧内容,后台自定义】
您需要登录后才可以回帖 登录 | 立即注册

本版积分规则

Archiver|手机版|小黑屋| 中国高清网 |网站地图 

GMT+8, 2023-1-31 18:19 , Processed in 0.093238 second(s), 26 queries .

Powered by HDchina X3.4

Copyright 2017-2019©HDchina.All right reserved

返回顶部 联系我们