查看: 25|回复: 0

[REMUX.HEVC] 神奇女侠[中文字幕].Wonder.Woman.2017.PROPER.2160p.BluRay.REMUX.HEVC.DTS-HD.MA.TrueHD.7.1.Atmos-FGT 72.14GB

[复制链接]
蓝光币
78 枚
发表于 2023-1-19 17:15:42 | 显示全部楼层 |阅读模式


◎标  题 奇异女侠
◎译  名 神力女超人(台)
◎片  名 Wonder Woman
◎年  代 2017
◎产  地 美国 / 中国大陆 / 中国香港
◎类  别 行动 / 奇异 / 冒险
◎语  言 英语
◎上映日期 2017-06-02(中国大陆 / 美国) / 2017-05-30(中国香港 / 台湾)
◎IMDb评分 7.4/10 (617255人评价)
◎IMDb链接 https://www.imdb.com/title/tt0451279/
◎豆瓣评分 7.1/10 (434494人评价)
◎豆瓣链接 https://movie.douban.com/subject/1578714/
◎片  长 141分钟
◎导  演 派蒂·杰金斯 Patty Jenkins
◎编  剧 艾伦·海因伯格 Allan Heinberg
       扎克·施奈德 Zack Snyder
       贾森·福克斯 Jason Fuchs
       威廉·马斯顿 William M. Marston
◎演  员 盖尔·加朵 Gal Gadot
       克里斯·派恩 Chris Pine
       康妮·尼尔森 Connie Nielsen
       罗宾·怀特 Robin Wright
       大卫·休里斯 David Thewlis
       丹尼·赫斯顿 Danny Huston
       埃伦娜·安纳亚 Elena Anaya
       露茜·戴维斯 Lucy Davis
       萨伊德·塔格马奥 Saïd Taghmaoui
       艾文·布莱纳 Ewen Bremner
       尤金·布雷弗·洛克 Eugene Brave Rock
       莉莉·阿斯佩尔 Lilly Aspell
       艾米丽·凯里 Emily Carey
       丽莎·洛文·孔斯利 Lisa Loven Kongsli
       安·奥戈博莫 Ann Ogbomo
       弗洛伦丝·卡松巴 Florence Kasumba
       杜晨·科洛斯 Doutzen Kroes
       扎克·施奈德 Zack Snyder
       艾丽西娅·维拉-贝利 Alicia Vela-Bailey
       詹姆斯·科兹莫 James Cosmo
       萨曼莎·乔 Samantha Win
       赖纳·博克 Rainer Bock
       蕾切尔·皮卡普 Rachel Pickup
       芙洛·费拉科 Flor Ferraco
       沃尔夫·卡赫勒 Wolf Kahler
       布鲁克·恩斯 Brooke Ence
       彼得·斯塔克 Peter Stark
       萨米·海曼 Sammy Hayman
       马丁·贝肖普 Martin Bishop
       嘎娜·巴亚尔赛汗 Gana Bayarsaikhan
       弗莱迪·卡特 Freddy Carter
       安.沃夫 Ann Wolfe
       杰玛·摩尔 Jemma Moore
◎标  签 DC / 超级豪杰 / 女神 / 美国 / 行动 / 科幻 / 漫画改编 / 2017
◎简  介
    戴安娜(盖尔·加朵 Gal Gadot 饰)是女王希波吕忒(康妮·尼尔森 Connie Nielsen 饰)的女儿,自幼生活在天堂岛上。庞大的屏障将这座岛屿同外界的纷纷扰扰离隔如同一个世外桃源,而岛上生在世的亦都是女性。在女武官安提奥普(罗宾·莱特 Robin Wright 饰)的教导之下,戴安娜习得了高强的技艺,而她的体内,似乎隐藏着某种强大的未知气力。                                                                      一场意外中,一位名为史蒂夫(克里斯·派恩 Chris Pine 饰)的男人来到了岛上,从他口中,戴安娜得知里面的天下正在履历战争的磨难,而形成这一切的罪魁罪魁,是战神阿瑞斯(大卫·休里斯 David Thewlis 饰)。为了拯救人类于水火当中,戴安娜仍然拿起了长剑与盾牌,立誓要完全摧毁阿瑞斯的诡计。
  1. Video
  2. ID                                       : 1
  3. ID in the original source medium         : 4113 (0x1011)
  4. Format                                   : HEVC
  5. Format/Info                              : High Efficiency Video Coding
  6. Format profile                           : Main [email protected]@High
  7. HDR format                               : SMPTE ST 2086, HDR10 compatible
  8. Codec ID                                 : V_MPEGH/ISO/HEVC
  9. Duration                                 : 2 h 21 min
  10. Bit rate                                 : 50.0 Mb/s
  11. Width                                    : 3 840 pixels
  12. Height                                   : 2 160 pixels
  13. Display aspect ratio                     : 16:9
  14. Frame rate mode                          : Constant
  15. Frame rate                               : 23.976 (24000/1001) FPS
  16. Color space                              : YUV
  17. Chroma subsampling                       : 4:2:0 (Type 2)
  18. Bit depth                                : 10 bits
  19. Bits/(Pixel*Frame)                       : 0.251
  20. Stream size                              : 49.3 GiB (68%)
  21. Writing library                          : ATEME Titan File 3.8.3 (4.8.3.0)        
  22. Language                                 : English
  23. Default                                  : No
  24. Forced                                   : No
  25. Color range                              : Limited
  26. Color primaries                          : BT.2020
  27. Transfer characteristics                 : PQ
  28. Matrix coefficients                      : BT.2020 non-constant
  29. Mastering display color primaries        : Display P3
  30. Mastering display luminance              : min: 0.0050 cd/m2, max: 4000 cd/m2
  31. Maximum Content Light Level              : 1721 cd/m2
  32. Maximum Frame-Average Light Level        : 379 cd/m2
  33. Original source medium                   : Blu-ray
  34. Audio #1
  35. ID                                       : 2
  36. ID in the original source medium         : 4352 (0x1100)
  37. Format                                   : MLP FBA 16-ch
  38. Format/Info                              : Meridian Lossless Packing FBA with 16-channel presentation
  39. Commercial name                          : Dolby TrueHD with Dolby Atmos
  40. Codec ID                                 : A_TRUEHD
  41. Duration                                 : 2 h 21 min
  42. Bit rate mode                            : Variable
  43. Bit rate                                 : 4 279 kb/s
  44. Maximum bit rate                         : 7 509 kb/s
  45. Channel(s)                               : 8 channels
  46. Channel layout                           : L R C LFE Ls Rs Lb Rb
  47. Sampling rate                            : 48.0 kHz
  48. Frame rate                               : 1 200.000 FPS (40 SPF)
  49. Bit depth                                : 24 bits
  50. Compression mode                         : Lossless
  51. Stream size                              : 4.22 GiB (6%)
  52. Title                                    : TrueHD 7.1 Atmos
  53. Language                                 : English
  54. Default                                  : Yes
  55. Forced                                   : No
  56. Original source medium                   : Blu-ray
  57. Number of dynamic objects                : 11
  58. Bed channel count                        : 1 channel
  59. Bed channel configuration                : LFE
  60. Audio #2
  61. ID                                       : 3
  62. Format                                   : DTS XLL
  63. Format/Info                              : Digital Theater Systems
  64. Commercial name                          : DTS-HD Master Audio
  65. Codec ID                                 : A_DTS
  66. Duration                                 : 2 h 21 min
  67. Bit rate mode                            : Variable
  68. Bit rate                                 : 3 696 kb/s
  69. Channel(s)                               : 8 channels
  70. Channel layout                           : C L R LFE Lb Rb Lss Rss
  71. Sampling rate                            : 48.0 kHz
  72. Frame rate                               : 93.750 FPS (512 SPF)
  73. Bit depth                                : 24 bits
  74. Compression mode                         : Lossless
  75. Stream size                              : 3.65 GiB (5%)
  76. Title                                    : DTS-HD MA 7.1
  77. Language                                 : English
  78. Default                                  : No
  79. Forced                                   : No
  80. Audio #3
  81. ID                                       : 4
  82. ID in the original source medium         : 4352 (0x1100)
  83. Format                                   : AC-3
  84. Format/Info                              : Audio Coding 3
  85. Commercial name                          : Dolby Digital
  86. Format settings                          : Dolby Surround EX
  87. Codec ID                                 : A_AC3
  88. Duration                                 : 2 h 21 min
  89. Bit rate mode                            : Constant
  90. Bit rate                                 : 448 kb/s
  91. Channel(s)                               : 6 channels
  92. Channel layout                           : L R C LFE Ls Rs
  93. Sampling rate                            : 48.0 kHz
  94. Frame rate                               : 31.250 FPS (1536 SPF)
  95. Compression mode                         : Lossy
  96. Stream size                              : 453 MiB (1%)
  97. Title                                    : DD 5.1
  98. Language                                 : English
  99. Service kind                             : Complete Main
  100. Default                                  : No
  101. Forced                                   : No
  102. Original source medium                   : Blu-ray
  103. Audio #4
  104. ID                                       : 5
  105. ID in the original source medium         : 4353 (0x1101)
  106. Format                                   : AC-3
  107. Format/Info                              : Audio Coding 3
  108. Commercial name                          : Dolby Digital
  109. Codec ID                                 : A_AC3
  110. Duration                                 : 2 h 21 min
  111. Bit rate mode                            : Constant
  112. Bit rate                                 : 448 kb/s
  113. Channel(s)                               : 6 channels
  114. Channel layout                           : L R C LFE Ls Rs
  115. Sampling rate                            : 48.0 kHz
  116. Frame rate                               : 31.250 FPS (1536 SPF)
  117. Compression mode                         : Lossy
  118. Stream size                              : 453 MiB (1%)
  119. Title                                    : DD 5.1
  120. Language                                 : English
  121. Service kind                             : Complete Main
  122. Default                                  : No
  123. Forced                                   : No
  124. Original source medium                   : Blu-ray
  125. Audio #5
  126. ID                                       : 6
  127. ID in the original source medium         : 4354 (0x1102)
  128. Format                                   : MLP FBA 16-ch
  129. Format/Info                              : Meridian Lossless Packing FBA with 16-channel presentation
  130. Commercial name                          : Dolby TrueHD with Dolby Atmos
  131. Codec ID                                 : A_TRUEHD
  132. Duration                                 : 2 h 21 min
  133. Bit rate mode                            : Variable
  134. Bit rate                                 : 4 232 kb/s
  135. Maximum bit rate                         : 7 290 kb/s
  136. Channel(s)                               : 8 channels
  137. Channel layout                           : L R C LFE Ls Rs Lb Rb
  138. Sampling rate                            : 48.0 kHz
  139. Frame rate                               : 1 200.000 FPS (40 SPF)
  140. Bit depth                                : 24 bits
  141. Compression mode                         : Lossless
  142. Stream size                              : 4.18 GiB (6%)
  143. Title                                    : TrueHD 7.1 Atmos
  144. Language                                 : French
  145. Default                                  : No
  146. Forced                                   : No
  147. Original source medium                   : Blu-ray
  148. Number of dynamic objects                : 11
  149. Bed channel count                        : 1 channel
  150. Bed channel configuration                : LFE
  151. Audio #6
  152. ID                                       : 7
  153. ID in the original source medium         : 4354 (0x1102)
  154. Format                                   : AC-3
  155. Format/Info                              : Audio Coding 3
  156. Commercial name                          : Dolby Digital
  157. Format settings                          : Dolby Surround EX
  158. Codec ID                                 : A_AC3
  159. Duration                                 : 2 h 21 min
  160. Bit rate mode                            : Constant
  161. Bit rate                                 : 448 kb/s
  162. Channel(s)                               : 6 channels
  163. Channel layout                           : L R C LFE Ls Rs
  164. Sampling rate                            : 48.0 kHz
  165. Frame rate                               : 31.250 FPS (1536 SPF)
  166. Compression mode                         : Lossy
  167. Stream size                              : 453 MiB (1%)
  168. Title                                    : DD 5.1
  169. Language                                 : French
  170. Service kind                             : Complete Main
  171. Default                                  : No
  172. Forced                                   : No
  173. Original source medium                   : Blu-ray
  174. Audio #7
  175. ID                                       : 8
  176. ID in the original source medium         : 4355 (0x1103)
  177. Format                                   : MLP FBA 16-ch
  178. Format/Info                              : Meridian Lossless Packing FBA with 16-channel presentation
  179. Commercial name                          : Dolby TrueHD with Dolby Atmos
  180. Codec ID                                 : A_TRUEHD
  181. Duration                                 : 2 h 21 min
  182. Bit rate mode                            : Variable
  183. Bit rate                                 : 4 197 kb/s
  184. Maximum bit rate                         : 7 260 kb/s
  185. Channel(s)                               : 8 channels
  186. Channel layout                           : L R C LFE Ls Rs Lb Rb
  187. Sampling rate                            : 48.0 kHz
  188. Frame rate                               : 1 200.000 FPS (40 SPF)
  189. Bit depth                                : 24 bits
  190. Compression mode                         : Lossless
  191. Stream size                              : 4.14 GiB (6%)
  192. Title                                    : TrueHD 7.1 Atmos
  193. Language                                 : German
  194. Default                                  : No
  195. Forced                                   : No
  196. Original source medium                   : Blu-ray
  197. Number of dynamic objects                : 11
  198. Bed channel count                        : 1 channel
  199. Bed channel configuration                : LFE
  200. Audio #8
  201. ID                                       : 9
  202. ID in the original source medium         : 4355 (0x1103)
  203. Format                                   : AC-3
  204. Format/Info                              : Audio Coding 3
  205. Commercial name                          : Dolby Digital
  206. Format settings                          : Dolby Surround EX
  207. Codec ID                                 : A_AC3
  208. Duration                                 : 2 h 21 min
  209. Bit rate mode                            : Constant
  210. Bit rate                                 : 448 kb/s
  211. Channel(s)                               : 6 channels
  212. Channel layout                           : L R C LFE Ls Rs
  213. Sampling rate                            : 48.0 kHz
  214. Frame rate                               : 31.250 FPS (1536 SPF)
  215. Compression mode                         : Lossy
  216. Stream size                              : 453 MiB (1%)
  217. Title                                    : DD 5.1
  218. Language                                 : German
  219. Service kind                             : Complete Main
  220. Default                                  : No
  221. Forced                                   : No
  222. Original source medium                   : Blu-ray
  223. Audio #9
  224. ID                                       : 10
  225. ID in the original source medium         : 4356 (0x1104)
  226. Format                                   : DTS XLL
  227. Format/Info                              : Digital Theater Systems
  228. Commercial name                          : DTS-HD Master Audio
  229. Codec ID                                 : A_DTS
  230. Duration                                 : 2 h 21 min
  231. Bit rate mode                            : Variable
  232. Bit rate                                 : 2 301 kb/s
  233. Channel(s)                               : 6 channels
  234. Channel layout                           : C L R Ls Rs LFE
  235. Sampling rate                            : 48.0 kHz
  236. Frame rate                               : 93.750 FPS (512 SPF)
  237. Bit depth                                : 16 bits
  238. Compression mode                         : Lossless
  239. Stream size                              : 2.27 GiB (3%)
  240. Title                                    : DTS-HD MA 5.1
  241. Language                                 : Italian
  242. Default                                  : No
  243. Forced                                   : No
  244. Original source medium                   : Blu-ray
  245. Audio #10
  246. ID                                       : 11
  247. ID in the original source medium         : 4357 (0x1105)
  248. Format                                   : AC-3
  249. Format/Info                              : Audio Coding 3
  250. Commercial name                          : Dolby Digital
  251. Codec ID                                 : A_AC3
  252. Duration                                 : 2 h 21 min
  253. Bit rate mode                            : Constant
  254. Bit rate                                 : 448 kb/s
  255. Channel(s)                               : 6 channels
  256. Channel layout                           : L R C LFE Ls Rs
  257. Sampling rate                            : 48.0 kHz
  258. Frame rate                               : 31.250 FPS (1536 SPF)
  259. Compression mode                         : Lossy
  260. Stream size                              : 453 MiB (1%)
  261. Title                                    : DD 5.1
  262. Language                                 : Spanish
  263. Service kind                             : Complete Main
  264. Default                                  : No
  265. Forced                                   : No
  266. Original source medium                   : Blu-ray
  267. Audio #11
  268. ID                                       : 12
  269. ID in the original source medium         : 4358 (0x1106)
  270. Format                                   : AC-3
  271. Format/Info                              : Audio Coding 3
  272. Commercial name                          : Dolby Digital
  273. Codec ID                                 : A_AC3
  274. Duration                                 : 2 h 21 min
  275. Bit rate mode                            : Constant
  276. Bit rate                                 : 448 kb/s
  277. Channel(s)                               : 6 channels
  278. Channel layout                           : L R C LFE Ls Rs
  279. Sampling rate                            : 48.0 kHz
  280. Frame rate                               : 31.250 FPS (1536 SPF)
  281. Compression mode                         : Lossy
  282. Stream size                              : 453 MiB (1%)
  283. Title                                    : DD 5.1
  284. Language                                 : Czech
  285. Service kind                             : Complete Main
  286. Default                                  : No
  287. Forced                                   : No
  288. Original source medium                   : Blu-ray
  289. Audio #12
  290. ID                                       : 13
  291. ID in the original source medium         : 4359 (0x1107)
  292. Format                                   : AC-3
  293. Format/Info                              : Audio Coding 3
  294. Commercial name                          : Dolby Digital
  295. Codec ID                                 : A_AC3
  296. Duration                                 : 2 h 21 min
  297. Bit rate mode                            : Constant
  298. Bit rate                                 : 448 kb/s
  299. Channel(s)                               : 6 channels
  300. Channel layout                           : L R C LFE Ls Rs
  301. Sampling rate                            : 48.0 kHz
  302. Frame rate                               : 31.250 FPS (1536 SPF)
  303. Compression mode                         : Lossy
  304. Stream size                              : 453 MiB (1%)
  305. Title                                    : DD 5.1
  306. Language                                 : Hungarian
  307. Service kind                             : Complete Main
  308. Default                                  : No
  309. Forced                                   : No
  310. Original source medium                   : Blu-ray
  311. Audio #13
  312. ID                                       : 14
  313. ID in the original source medium         : 4360 (0x1108)
  314. Format                                   : AC-3
  315. Format/Info                              : Audio Coding 3
  316. Commercial name                          : Dolby Digital
  317. Codec ID                                 : A_AC3
  318. Duration                                 : 2 h 21 min
  319. Bit rate mode                            : Constant
  320. Bit rate                                 : 448 kb/s
  321. Channel(s)                               : 6 channels
  322. Channel layout                           : L R C LFE Ls Rs
  323. Sampling rate                            : 48.0 kHz
  324. Frame rate                               : 31.250 FPS (1536 SPF)
  325. Compression mode                         : Lossy
  326. Stream size                              : 453 MiB (1%)
  327. Title                                    : DD 5.1
  328. Language                                 : Polish
  329. Service kind                             : Complete Main
  330. Default                                  : No
  331. Forced                                   : No
  332. Original source medium                   : Blu-ray
  333. Audio #14
  334. ID                                       : 15
  335. ID in the original source medium         : 4361 (0x1109)
  336. Format                                   : AC-3
  337. Format/Info                              : Audio Coding 3
  338. Commercial name                          : Dolby Digital
  339. Codec ID                                 : A_AC3
  340. Duration                                 : 2 h 21 min
  341. Bit rate mode                            : Constant
  342. Bit rate                                 : 448 kb/s
  343. Channel(s)                               : 6 channels
  344. Channel layout                           : L R C LFE Ls Rs
  345. Sampling rate                            : 48.0 kHz
  346. Frame rate                               : 31.250 FPS (1536 SPF)
  347. Compression mode                         : Lossy
  348. Stream size                              : 453 MiB (1%)
  349. Title                                    : DD 5.1
  350. Language                                 : Thai
  351. Service kind                             : Complete Main
  352. Default                                  : No
  353. Forced                                   : No
  354. Original source medium                   : Blu-ray
  355. Text #1
  356. ID                                       : 16
  357. Format                                   : UTF-8
  358. Codec ID                                 : S_TEXT/UTF8
  359. Codec ID/Info                            : UTF-8 Plain Text
  360. Duration                                 : 2 h 20 min
  361. Bit rate                                 : 44 b/s
  362. Frame rate                               : 0.187 FPS
  363. Count of elements                        : 1572
  364. Stream size                              : 45.5 KiB (0%)
  365. Language                                 : English
  366. Default                                  : Yes
  367. Forced                                   : No
  368. Text #2
  369. ID                                       : 17
  370. Format                                   : UTF-8
  371. Codec ID                                 : S_TEXT/UTF8
  372. Codec ID/Info                            : UTF-8 Plain Text
  373. Duration                                 : 2 h 20 min
  374. Bit rate                                 : 48 b/s
  375. Frame rate                               : 0.215 FPS
  376. Count of elements                        : 1814
  377. Stream size                              : 50.0 KiB (0%)
  378. Title                                    : SDH
  379. Language                                 : English
  380. Default                                  : No
  381. Forced                                   : No
  382. Text #3
  383. ID                                       : 18
  384. ID in the original source medium         : 4769 (0x12A1)
  385. Format                                   : PGS
  386. Muxing mode                              : zlib
  387. Codec ID                                 : S_HDMV/PGS
  388. Codec ID/Info                            : Picture based subtitle format used on BDs/HD-DVDs
  389. Duration                                 : 2 h 20 min
  390. Bit rate                                 : 29.6 kb/s
  391. Frame rate                               : 0.434 FPS
  392. Count of elements                        : 3654
  393. Stream size                              : 29.7 MiB (0%)
  394. Language                                 : English
  395. Default                                  : No
  396. Forced                                   : No
  397. Original source medium                   : Blu-ray
  398. Text #4
  399. ID                                       : 19
  400. ID in the original source medium         : 4771 (0x12A3)
  401. Format                                   : PGS
  402. Muxing mode                              : zlib
  403. Codec ID                                 : S_HDMV/PGS
  404. Codec ID/Info                            : Picture based subtitle format used on BDs/HD-DVDs
  405. Duration                                 : 2 h 20 min
  406. Bit rate                                 : 21.4 kb/s
  407. Frame rate                               : 0.347 FPS
  408. Count of elements                        : 2924
  409. Stream size                              : 21.5 MiB (0%)
  410. Language                                 : French
  411. Default                                  : No
  412. Forced                                   : No
  413. Original source medium                   : Blu-ray
  414. Text #5
  415. ID                                       : 20
  416. ID in the original source medium         : 4772 (0x12A4)
  417. Format                                   : PGS
  418. Muxing mode                              : zlib
  419. Codec ID                                 : S_HDMV/PGS
  420. Codec ID/Info                            : Picture based subtitle format used on BDs/HD-DVDs
  421. Duration                                 : 2 h 20 min
  422. Bit rate                                 : 34.3 kb/s
  423. Frame rate                               : 0.443 FPS
  424. Count of elements                        : 3732
  425. Stream size                              : 34.4 MiB (0%)
  426. Language                                 : German
  427. Default                                  : No
  428. Forced                                   : No
  429. Original source medium                   : Blu-ray
  430. Text #6
  431. ID                                       : 21
  432. ID in the original source medium         : 4773 (0x12A5)
  433. Format                                   : PGS
  434. Muxing mode                              : zlib
  435. Codec ID                                 : S_HDMV/PGS
  436. Codec ID/Info                            : Picture based subtitle format used on BDs/HD-DVDs
  437. Duration                                 : 2 h 20 min
  438. Bit rate                                 : 27.7 kb/s
  439. Frame rate                               : 0.431 FPS
  440. Count of elements                        : 3630
  441. Stream size                              : 27.8 MiB (0%)
  442. Language                                 : Italian
  443. Default                                  : No
  444. Forced                                   : No
  445. Original source medium                   : Blu-ray
  446. Text #7
  447. ID                                       : 22
  448. ID in the original source medium         : 4774 (0x12A6)
  449. Format                                   : PGS
  450. Muxing mode                              : zlib
  451. Codec ID                                 : S_HDMV/PGS
  452. Codec ID/Info                            : Picture based subtitle format used on BDs/HD-DVDs
  453. Duration                                 : 2 h 20 min
  454. Bit rate                                 : 24.9 kb/s
  455. Frame rate                               : 0.380 FPS
  456. Count of elements                        : 3202
  457. Stream size                              : 25.0 MiB (0%)
  458. Language                                 : Spanish
  459. Default                                  : No
  460. Forced                                   : No
  461. Original source medium                   : Blu-ray
  462. Text #8
  463. ID                                       : 23
  464. ID in the original source medium         : 4775 (0x12A7)
  465. Format                                   : PGS
  466. Muxing mode                              : zlib
  467. Codec ID                                 : S_HDMV/PGS
  468. Codec ID/Info                            : Picture based subtitle format used on BDs/HD-DVDs
  469. Duration                                 : 2 h 20 min
  470. Bit rate                                 : 21.5 kb/s
  471. Frame rate                               : 0.309 FPS
  472. Count of elements                        : 2604
  473. Stream size                              : 21.6 MiB (0%)
  474. Language                                 : Dutch
  475. Default                                  : No
  476. Forced                                   : No
  477. Original source medium                   : Blu-ray
  478. Text #9
  479. ID                                       : 24
  480. ID in the original source medium         : 4776 (0x12A8)
  481. Format                                   : PGS
  482. Muxing mode                              : zlib
  483. Codec ID                                 : S_HDMV/PGS
  484. Codec ID/Info                            : Picture based subtitle format used on BDs/HD-DVDs
  485. Duration                                 : 2 h 20 min
  486. Bit rate                                 : 24.7 kb/s
  487. Frame rate                               : 0.361 FPS
  488. Count of elements                        : 3036
  489. Stream size                              : 24.8 MiB (0%)
  490. Language                                 : Chinese
  491. Default                                  : No
  492. Forced                                   : No
  493. Original source medium                   : Blu-ray
  494. Text #10
  495. ID                                       : 25
  496. ID in the original source medium         : 4777 (0x12A9)
  497. Format                                   : PGS
  498. Muxing mode                              : zlib
  499. Codec ID                                 : S_HDMV/PGS
  500. Codec ID/Info                            : Picture based subtitle format used on BDs/HD-DVDs
  501. Duration                                 : 2 h 20 min
  502. Bit rate                                 : 22.4 kb/s
  503. Frame rate                               : 0.380 FPS
  504. Count of elements                        : 3200
  505. Stream size                              : 22.4 MiB (0%)
  506. Language                                 : Chinese
  507. Default                                  : No
  508. Forced                                   : No
  509. Original source medium                   : Blu-ray
  510. Text #11
  511. ID                                       : 26
  512. ID in the original source medium         : 4778 (0x12AA)
  513. Format                                   : PGS
  514. Muxing mode                              : zlib
  515. Codec ID                                 : S_HDMV/PGS
  516. Codec ID/Info                            : Picture based subtitle format used on BDs/HD-DVDs
  517. Duration                                 : 2 h 20 min
  518. Bit rate                                 : 16.2 kb/s
  519. Frame rate                               : 0.378 FPS
  520. Count of elements                        : 3184
  521. Stream size                              : 16.3 MiB (0%)
  522. Language                                 : Korean
  523. Default                                  : No
  524. Forced                                   : No
  525. Original source medium                   : Blu-ray
  526. Text #12
  527. ID                                       : 27
  528. ID in the original source medium         : 4779 (0x12AB)
  529. Format                                   : PGS
  530. Muxing mode                              : zlib
  531. Codec ID                                 : S_HDMV/PGS
  532. Codec ID/Info                            : Picture based subtitle format used on BDs/HD-DVDs
  533. Duration                                 : 2 h 20 min
  534. Bit rate                                 : 13.5 kb/s
  535. Frame rate                               : 0.380 FPS
  536. Count of elements                        : 3202
  537. Stream size                              : 13.5 MiB (0%)
  538. Language                                 : Arabic
  539. Default                                  : No
  540. Forced                                   : No
  541. Original source medium                   : Blu-ray
  542. Text #13
  543. ID                                       : 28
  544. ID in the original source medium         : 4780 (0x12AC)
  545. Format                                   : PGS
  546. Muxing mode                              : zlib
  547. Codec ID                                 : S_HDMV/PGS
  548. Codec ID/Info                            : Picture based subtitle format used on BDs/HD-DVDs
  549. Duration                                 : 2 h 20 min
  550. Bit rate                                 : 24.4 kb/s
  551. Frame rate                               : 0.374 FPS
  552. Count of elements                        : 3150
  553. Stream size                              : 24.5 MiB (0%)
  554. Language                                 : Croatian
  555. Default                                  : No
  556. Forced                                   : No
  557. Original source medium                   : Blu-ray
  558. Text #14
  559. ID                                       : 29
  560. ID in the original source medium         : 4781 (0x12AD)
  561. Format                                   : PGS
  562. Muxing mode                              : zlib
  563. Codec ID                                 : S_HDMV/PGS
  564. Codec ID/Info                            : Picture based subtitle format used on BDs/HD-DVDs
  565. Duration                                 : 2 h 20 min
  566. Bit rate                                 : 22.8 kb/s
  567. Frame rate                               : 0.380 FPS
  568. Count of elements                        : 3198
  569. Stream size                              : 22.9 MiB (0%)
  570. Language                                 : Czech
  571. Default                                  : No
  572. Forced                                   : No
  573. Original source medium                   : Blu-ray
  574. Text #15
  575. ID                                       : 30
  576. ID in the original source medium         : 4782 (0x12AE)
  577. Format                                   : PGS
  578. Muxing mode                              : zlib
  579. Codec ID                                 : S_HDMV/PGS
  580. Codec ID/Info                            : Picture based subtitle format used on BDs/HD-DVDs
  581. Duration                                 : 2 h 20 min
  582. Bit rate                                 : 23.0 kb/s
  583. Frame rate                               : 0.281 FPS
  584. Count of elements                        : 2364
  585. Stream size                              : 23.1 MiB (0%)
  586. Language                                 : Danish
  587. Default                                  : No
  588. Forced                                   : No
  589. Original source medium                   : Blu-ray
  590. Text #16
  591. ID                                       : 31
  592. ID in the original source medium         : 4783 (0x12AF)
  593. Format                                   : PGS
  594. Muxing mode                              : zlib
  595. Codec ID                                 : S_HDMV/PGS
  596. Codec ID/Info                            : Picture based subtitle format used on BDs/HD-DVDs
  597. Duration                                 : 2 h 20 min
  598. Bit rate                                 : 23.4 kb/s
  599. Frame rate                               : 0.380 FPS
  600. Count of elements                        : 3198
  601. Stream size                              : 23.5 MiB (0%)
  602. Language                                 : Finnish
  603. Default                                  : No
  604. Forced                                   : No
  605. Original source medium                   : Blu-ray
  606. Text #17
  607. ID                                       : 32
  608. ID in the original source medium         : 4784 (0x12B0)
  609. Format                                   : PGS
  610. Muxing mode                              : zlib
  611. Codec ID                                 : S_HDMV/PGS
  612. Codec ID/Info                            : Picture based subtitle format used on BDs/HD-DVDs
  613. Duration                                 : 2 h 20 min
  614. Bit rate                                 : 28.1 kb/s
  615. Frame rate                               : 0.381 FPS
  616. Count of elements                        : 3204
  617. Stream size                              : 28.2 MiB (0%)
  618. Language                                 : Greek
  619. Default                                  : No
  620. Forced                                   : No
  621. Original source medium                   : Blu-ray
  622. Text #18
  623. ID                                       : 33
  624. ID in the original source medium         : 4785 (0x12B1)
  625. Format                                   : PGS
  626. Muxing mode                              : zlib
  627. Codec ID                                 : S_HDMV/PGS
  628. Codec ID/Info                            : Picture based subtitle format used on BDs/HD-DVDs
  629. Duration                                 : 2 h 20 min
  630. Bit rate                                 : 24.2 kb/s
  631. Frame rate                               : 0.380 FPS
  632. Count of elements                        : 3198
  633. Stream size                              : 24.2 MiB (0%)
  634. Language                                 : Hungarian
  635. Default                                  : No
  636. Forced                                   : No
  637. Original source medium                   : Blu-ray
  638. Text #19
  639. ID                                       : 34
  640. ID in the original source medium         : 4786 (0x12B2)
  641. Format                                   : PGS
  642. Muxing mode                              : zlib
  643. Codec ID                                 : S_HDMV/PGS
  644. Codec ID/Info                            : Picture based subtitle format used on BDs/HD-DVDs
  645. Duration                                 : 2 h 20 min
  646. Bit rate                                 : 22.4 kb/s
  647. Frame rate                               : 0.313 FPS
  648. Count of elements                        : 2632
  649. Stream size                              : 22.5 MiB (0%)
  650. Language                                 : Norwegian
  651. Default                                  : No
  652. Forced                                   : No
  653. Original source medium                   : Blu-ray
  654. Text #20
  655. ID                                       : 35
  656. ID in the original source medium         : 4787 (0x12B3)
  657. Format                                   : PGS
  658. Muxing mode                              : zlib
  659. Codec ID                                 : S_HDMV/PGS
  660. Codec ID/Info                            : Picture based subtitle format used on BDs/HD-DVDs
  661. Duration                                 : 2 h 20 min
  662. Bit rate                                 : 21.3 kb/s
  663. Frame rate                               : 0.375 FPS
  664. Count of elements                        : 3156
  665. Stream size                              : 21.4 MiB (0%)
  666. Language                                 : Polish
  667. Default                                  : No
  668. Forced                                   : No
  669. Original source medium                   : Blu-ray
  670. Text #21
  671. ID                                       : 36
  672. ID in the original source medium         : 4788 (0x12B4)
  673. Format                                   : PGS
  674. Muxing mode                              : zlib
  675. Codec ID                                 : S_HDMV/PGS
  676. Codec ID/Info                            : Picture based subtitle format used on BDs/HD-DVDs
  677. Duration                                 : 2 h 20 min
  678. Bit rate                                 : 25.1 kb/s
  679. Frame rate                               : 0.380 FPS
  680. Count of elements                        : 3202
  681. Stream size                              : 25.2 MiB (0%)
  682. Language                                 : Portuguese
  683. Default                                  : No
  684. Forced                                   : No
  685. Original source medium                   : Blu-ray
  686. Text #22
  687. ID                                       : 37
  688. ID in the original source medium         : 4789 (0x12B5)
  689. Format                                   : PGS
  690. Muxing mode                              : zlib
  691. Codec ID                                 : S_HDMV/PGS
  692. Codec ID/Info                            : Picture based subtitle format used on BDs/HD-DVDs
  693. Duration                                 : 2 h 20 min
  694. Bit rate                                 : 23.4 kb/s
  695. Frame rate                               : 0.358 FPS
  696. Count of elements                        : 3012
  697. Stream size                              : 23.5 MiB (0%)
  698. Language                                 : Romanian
  699. Default                                  : No
  700. Forced                                   : No
  701. Original source medium                   : Blu-ray
  702. Text #23
  703. ID                                       : 38
  704. ID in the original source medium         : 4790 (0x12B6)
  705. Format                                   : PGS
  706. Muxing mode                              : zlib
  707. Codec ID                                 : S_HDMV/PGS
  708. Codec ID/Info                            : Picture based subtitle format used on BDs/HD-DVDs
  709. Duration                                 : 2 h 20 min
  710. Bit rate                                 : 23.3 kb/s
  711. Frame rate                               : 0.380 FPS
  712. Count of elements                        : 3200
  713. Stream size                              : 23.4 MiB (0%)
  714. Language                                 : Swedish
  715. Default                                  : No
  716. Forced                                   : No
  717. Original source medium                   : Blu-ray
  718. Text #24
  719. ID                                       : 39
  720. ID in the original source medium         : 4791 (0x12B7)
  721. Format                                   : PGS
  722. Muxing mode                              : zlib
  723. Codec ID                                 : S_HDMV/PGS
  724. Codec ID/Info                            : Picture based subtitle format used on BDs/HD-DVDs
  725. Duration                                 : 2 h 20 min
  726. Bit rate                                 : 24.7 kb/s
  727. Frame rate                               : 0.380 FPS
  728. Count of elements                        : 3198
  729. Stream size                              : 24.7 MiB (0%)
  730. Language                                 : Thai
  731. Default                                  : No
  732. Forced                                   : No
  733. Original source medium                   : Blu-ray
  734. Text #25
  735. ID                                       : 40
  736. ID in the original source medium         : 4792 (0x12B8)
  737. Format                                   : PGS
  738. Muxing mode                              : zlib
  739. Codec ID                                 : S_HDMV/PGS
  740. Codec ID/Info                            : Picture based subtitle format used on BDs/HD-DVDs
  741. Duration                                 : 1 h 19 min
  742. Bit rate                                 : 517 b/s
  743. Frame rate                               : 0.007 FPS
  744. Count of elements                        : 34
  745. Stream size                              : 302 KiB (0%)
  746. Language                                 : French
  747. Default                                  : No
  748. Forced                                   : No
  749. Original source medium                   : Blu-ray
  750. Text #26
  751. ID                                       : 41
  752. ID in the original source medium         : 4793 (0x12B9)
  753. Format                                   : PGS
  754. Muxing mode                              : zlib
  755. Codec ID                                 : S_HDMV/PGS
  756. Codec ID/Info                            : Picture based subtitle format used on BDs/HD-DVDs
  757. Duration                                 : 2 h 18 min
  758. Bit rate                                 : 421 b/s
  759. Frame rate                               : 0.005 FPS
  760. Count of elements                        : 42
  761. Stream size                              : 428 KiB (0%)
  762. Language                                 : German
  763. Default                                  : No
  764. Forced                                   : No
  765. Original source medium                   : Blu-ray
  766. Text #27
  767. ID                                       : 42
  768. ID in the original source medium         : 4794 (0x12BA)
  769. Format                                   : PGS
  770. Muxing mode                              : zlib
  771. Codec ID                                 : S_HDMV/PGS
  772. Codec ID/Info                            : Picture based subtitle format used on BDs/HD-DVDs
  773. Duration                                 : 2 h 18 min
  774. Bit rate                                 : 351 b/s
  775. Frame rate                               : 0.006 FPS
  776. Count of elements                        : 48
  777. Stream size                              : 357 KiB (0%)
  778. Language                                 : Italian
  779. Default                                  : No
  780. Forced                                   : No
  781. Original source medium                   : Blu-ray
  782. Text #28
  783. ID                                       : 43
  784. ID in the original source medium         : 4795 (0x12BB)
  785. Format                                   : PGS
  786. Muxing mode                              : zlib
  787. Codec ID                                 : S_HDMV/PGS
  788. Codec ID/Info                            : Picture based subtitle format used on BDs/HD-DVDs
  789. Duration                                 : 2 h 18 min
  790. Bit rate                                 : 309 b/s
  791. Frame rate                               : 0.004 FPS
  792. Count of elements                        : 36
  793. Stream size                              : 314 KiB (0%)
  794. Language                                 : Spanish
  795. Default                                  : No
  796. Forced                                   : No
  797. Original source medium                   : Blu-ray
  798. Text #29
  799. ID                                       : 44
  800. ID in the original source medium         : 4796 (0x12BC)
  801. Format                                   : PGS
  802. Muxing mode                              : zlib
  803. Codec ID                                 : S_HDMV/PGS
  804. Codec ID/Info                            : Picture based subtitle format used on BDs/HD-DVDs
  805. Duration                                 : 2 h 19 min
  806. Bit rate                                 : 328 b/s
  807. Frame rate                               : 0.005 FPS
  808. Count of elements                        : 44
  809. Stream size                              : 336 KiB (0%)
  810. Language                                 : Czech
  811. Default                                  : No
  812. Forced                                   : No
  813. Original source medium                   : Blu-ray
  814. Text #30
  815. ID                                       : 45
  816. ID in the original source medium         : 4797 (0x12BD)
  817. Format                                   : PGS
  818. Muxing mode                              : zlib
  819. Codec ID                                 : S_HDMV/PGS
  820. Codec ID/Info                            : Picture based subtitle format used on BDs/HD-DVDs
  821. Duration                                 : 2 h 19 min
  822. Bit rate                                 : 327 b/s
  823. Frame rate                               : 0.005 FPS
  824. Count of elements                        : 44
  825. Stream size                              : 335 KiB (0%)
  826. Language                                 : Hungarian
  827. Default                                  : No
  828. Forced                                   : No
  829. Original source medium                   : Blu-ray
  830. Text #31
  831. ID                                       : 46
  832. ID in the original source medium         : 4798 (0x12BE)
  833. Format                                   : PGS
  834. Muxing mode                              : zlib
  835. Codec ID                                 : S_HDMV/PGS
  836. Codec ID/Info                            : Picture based subtitle format used on BDs/HD-DVDs
  837. Duration                                 : 2 h 18 min
  838. Bit rate                                 : 341 b/s
  839. Frame rate                               : 0.006 FPS
  840. Count of elements                        : 48
  841. Stream size                              : 347 KiB (0%)
  842. Language                                 : Polish
  843. Default                                  : No
  844. Forced                                   : No
  845. Original source medium                   : Blu-ray
  846. Text #32
  847. ID                                       : 47
  848. ID in the original source medium         : 4799 (0x12BF)
  849. Format                                   : PGS
  850. Muxing mode                              : zlib
  851. Codec ID                                 : S_HDMV/PGS
  852. Codec ID/Info                            : Picture based subtitle format used on BDs/HD-DVDs
  853. Duration                                 : 2 h 19 min
  854. Bit rate                                 : 391 b/s
  855. Frame rate                               : 0.006 FPS
  856. Count of elements                        : 50
  857. Stream size                              : 401 KiB (0%)
  858. Language                                 : Thai
  859. Default                                  : No
  860. Forced                                   : No
  861. Original source medium                   : Blu-ray
  862. Menu
  863. 00:00:00.000                             : en:Chapter 01
  864. 00:10:26.876                             : en:Chapter 02
  865. 00:23:12.182                             : en:Chapter 03
  866. 00:33:10.488                             : en:Chapter 04
  867. 00:43:55.132                             : en:Chapter 05
  868. 00:54:25.553                             : en:Chapter 06
  869. 01:07:37.928                             : en:Chapter 07
  870. 01:22:29.903                             : en:Chapter 08
  871. 01:34:02.845                             : en:Chapter 09
  872. 01:45:37.873                             : en:Chapter 10
  873. 01:57:43.556                             : en:Chapter 11
  874. 02:10:41.416                             : en:Chapter 12
复制代码











奇异女侠[中笔墨幕].Wonder.Woman.2017.PROPER.2160p.BluRay.REMUX.HEVC.DTS-HD.MA.TrueHD.7.1.Atmos-FGT 72.14GB
p2460006593.jpg
回复

使用道具 举报

懒得打字嘛,点击右侧快捷回复 【右侧内容,后台自定义】
您需要登录后才可以回帖 登录 | 立即注册

本版积分规则

Archiver|手机版|小黑屋| 中国高清网 |网站地图 

GMT+8, 2023-1-29 23:50 , Processed in 0.168773 second(s), 26 queries .

Powered by HDchina X3.4

Copyright 2017-2019©HDchina.All right reserved

返回顶部 联系我们