查看: 108|回复: 1

[剧情片] 大智若愚 Nobodys.Fool.1994.1080p.BluRay.x264-USURY 12.82GB

[复制链接]
蓝光币
78 枚
发表于 2022-12-19 11:46:12 | 显示全部楼层 |阅读模式
[img][/img]

◎标  题 深藏若虚
◎片  名 Nobody's Fool
◎年  代 1994
◎产  地 美国
◎类  别 剧情
◎语  言 英语
◎上映日期 1994-12-23(美国)
◎IMDb评分 7.4/10 (19751人评价)
◎IMDb链接 https://www.imdb.com/title/tt0110684/
◎豆瓣评分 8.0/10 (1276人评价)
◎豆瓣链接 https://movie.douban.com/subject/1297601/
◎片  长 110 分钟
◎导  演 罗伯特·本顿 Robert Benton
◎编  剧 理查德·拉索 Richard Russo
       罗伯特·本顿 Robert Benton
◎演  员 保罗·纽曼 Paul Newman
       杰西卡·坦迪 Jessica Tandy
       布鲁斯·威利斯 Bruce Willis
       梅兰尼·格里菲斯 Melanie Griffith
       迪伦·沃尔什 Dylan Walsh
       普路特·泰勒·文斯 Pruitt Taylor Vince
       吉恩·萨克斯 Gene Saks
       约瑟夫·索默 Josef Sommer
       菲利普·塞默·霍夫曼 Philip Seymour Hoffman
       菲利普·博斯科 Philip Bosco
       凯瑟琳·丹特 Catherine Dent
       Alexander Goodwin Alexander Goodwin
       卡尔·马图斯维奇 Carl J. Matusovich
       杰·帕特森 Jay Patterson
       杰瑞·梅尔 Jerry Mayer
       爱丽丝·德拉蒙德 Alice Drummond
       玛格·马丁戴尔 Margo Martindale
       安吉丽卡·托恩 Angelica Torn
       Shannah Laumeister Shannah Laumeister
       Page Johnson Page Johnson
       Anibal O. Lleras Anibal O. Lleras
       伊莉莎白·威尔森 Elizabeth Wilson
       迈克尔·豪斯曼 Michael Hausman
       Scott Ferguson Scott Ferguson
       阿琳·多诺万 Arlene Donovan
       霍华德·肖 Howard Shore
       约翰·布卢姆 John Bloom
       Ellen Chenoweth Ellen Chenoweth
       Dan Davis Dan Davis
       Joseph G. Aulisi Joseph G. Aulisi
       金·桑坦托尼奥 Kim Santantonio
       Dale Bach-Siss Dale Bach-Siss
       内奥米·多恩 Naomi Donne
       艾兰·丹格里奥 Alan D'Angerio
       Chitra F. Mojtabai Chitra F. Mojtabai
◎标  签 美国 / 剧情 / 保罗·纽曼 / 美国电影 / PaulNewman / 1994 / 伦理 / BruceWillis
◎简  介

  演员声势壮盛的文艺小品,包括:保罗.纽曼、布鲁斯.威利斯、梅拉尼.格里菲思、洁西卡.坦迪等。导演是导过《克拉玛对克拉玛》的罗伯特.本顿。剧情以一位本性倔强的老修建工为中心,描写他与方圆的镇民在纽约北部的朴实小镇中过着虽不富足却悠然自得的生活。全片没有太大的戏剧飞腾,但对小镇风情的经营相当做功,保罗.纽曼表演跟他现实年龄相当的老角仍具神出鬼没风彩,获柏林电影节最好男配角奖。
  1. Video
  2. ID                                       : 1
  3. Format                                   : AVC
  4. Format/Info                              : Advanced Video Codec
  5. Format profile                           : [email protected]
  6. Format settings                          : CABAC / 4 Ref Frames
  7. Format settings, CABAC                   : Yes
  8. Format settings, Reference frames        : 4 frames
  9. Codec ID                                 : V_MPEG4/ISO/AVC
  10. Duration                                 : 1 h 50 min
  11. Bit rate                                 : 14.7 Mb/s
  12. Width                                    : 1 918 pixels
  13. Height                                   : 1 080 pixels
  14. Display aspect ratio                     : 16:9
  15. Frame rate mode                          : Constant
  16. Frame rate                               : 23.976 (24000/1001/189150) FPS
  17. Color space                              : YUV
  18. Chroma subsampling                       : 4:2:0
  19. Bit depth                                : 8 bits
  20. Scan type                                : Progressive
  21. Bits/(Pixel*Frame)                       : 0.296
  22. Stream size                              : 11.3 GiB (88%)
  23. Writing library                          : x264 core 164 r3101 b093bbe
  24. Encoding settings                        : cabac=1 / ref=4 / deblock=1:-3:-3 / analyse=0x3:0x133 / me=umh / subme=10 / psy=1 / psy_rd=1.00:0.15 / mixed_ref=1 / me_range=24 / chroma_me=1 / trellis=2 / 8x8dct=1 / cqm=0 / deadzone=21,11 / fast_pskip=1 / chroma_qp_offset=-3 / threads=18 / lookahead_threads=3 / sliced_threads=0 / nr=0 / decimate=1 / interlaced=0 / bluray_compat=0 / constrained_intra=0 / bframes=8 / b_pyramid=2 / b_adapt=2 / b_bias=0 / direct=3 / weightb=1 / open_gop=0 / weightp=2 / keyint=250 / keyint_min=23 / scenecut=40 / intra_refresh=0 / rc_lookahead=60 / rc=crf / mbtree=1 / crf=19.5 / qcomp=0.60 / qpmin=0 / qpmax=69 / qpstep=4 / ip_ratio=1.40 / aq=3:0.50
  25. Language                                 : English
  26. Default                                  : Yes
  27. Forced                                   : No
  28. Color range                              : Limited
  29. Matrix coefficients                      : BT.709

  30. Audio #1
  31. ID                                       : 2
  32. Format                                   : DTS XLL
  33. Format/Info                              : Digital Theater Systems
  34. Commercial name                          : DTS-HD Master Audio
  35. Codec ID                                 : A_DTS
  36. Duration                                 : 1 h 50 min
  37. Bit rate mode                            : Variable
  38. Bit rate                                 : 1 843 kb/s
  39. Channel(s)                               : 6 channels
  40. Channel layout                           : C L R Ls Rs LFE
  41. Sampling rate                            : 48.0 kHz
  42. Frame rate                               : 93.750 FPS (512 SPF)
  43. Bit depth                                : 16 bits
  44. Compression mode                         : Lossless
  45. Stream size                              : 1.42 GiB (11%)
  46. Language                                 : English
  47. Default                                  : Yes
  48. Forced                                   : No

  49. Audio #2
  50. ID                                       : 3
  51. Format                                   : AAC LC
  52. Format/Info                              : Advanced Audio Codec Low Complexity
  53. Codec ID                                 : A_AAC-2
  54. Duration                                 : 1 h 50 min
  55. Bit rate                                 : 96.0 kb/s
  56. Channel(s)                               : 2 channels
  57. Channel layout                           : L R
  58. Sampling rate                            : 48.0 kHz
  59. Frame rate                               : 46.875 FPS (1024 SPF)
  60. Compression mode                         : Lossy
  61. Delay relative to video                  : 9 ms
  62. Stream size                              : 75.6 MiB (1%)
  63. Title                                    : English Commentary by Jim Hemphill
  64. Language                                 : English
  65. Default                                  : No
  66. Forced                                   : No

  67. Text #1
  68. ID                                       : 4
  69. Format                                   : UTF-8
  70. Codec ID                                 : S_TEXT/UTF8
  71. Codec ID/Info                            : UTF-8 Plain Text
  72. Duration                                 : 1 h 43 min
  73. Bit rate                                 : 64 b/s
  74. Count of elements                        : 1646
  75. Stream size                              : 49.1 KiB (0%)
  76. Title                                    : English
  77. Language                                 : English
  78. Default                                  : No
  79. Forced                                   : No

  80. Text #2
  81. ID                                       : 5
  82. Format                                   : UTF-8
  83. Codec ID                                 : S_TEXT/UTF8
  84. Codec ID/Info                            : UTF-8 Plain Text
  85. Duration                                 : 1 h 49 min
  86. Bit rate                                 : 72 b/s
  87. Count of elements                        : 2000
  88. Stream size                              : 58.2 KiB (0%)
  89. Title                                    : English SDH
  90. Language                                 : English
  91. Default                                  : No
  92. Forced                                   : No

  93. Text #3
  94. ID                                       : 6
  95. Format                                   : PGS
  96. Muxing mode                              : zlib
  97. Codec ID                                 : S_HDMV/PGS
  98. Codec ID/Info                            : Picture based subtitle format used on BDs/HD-DVDs
  99. Duration                                 : 1 h 49 min
  100. Bit rate                                 : 17.9 kb/s
  101. Count of elements                        : 4004
  102. Stream size                              : 14.1 MiB (0%)
  103. Title                                    : English SDH
  104. Language                                 : English
  105. Default                                  : No
  106. Forced                                   : No

  107. Menu
  108. 00:00:00.000                             : en:00:00:00.000
  109. 00:09:19.434                             : en:00:09:19.434
  110. 00:18:57.053                             : en:00:18:57.053
  111. 00:28:34.796                             : en:00:28:34.796
  112. 00:36:03.912                             : en:00:36:03.912
  113. 00:45:24.805                             : en:00:45:24.805
  114. 00:54:35.856                             : en:00:54:35.856
  115. 01:04:56.184                             : en:01:04:56.184
  116. 01:13:50.635                             : en:01:13:50.635
  117. 01:22:30.404                             : en:01:22:30.404
  118. 01:30:52.697                             : en:01:30:52.697
  119. 01:40:51.170                             : en:01:40:51.170
复制代码




                                       
                                       

                                       
                                       
                                       




Nobodys.Fool.1994.1080p.BluRay.x264-USURY.torrent (16.75 KB, 下载次数: 4)
回复

使用道具 举报

蓝光币
20 枚
QQ
发表于 2023-1-21 15:03:52 | 显示全部楼层

这个帖子不回对不起自己!我想我是一天也不能离开中国高清电影网
回复

使用道具 举报

懒得打字嘛,点击右侧快捷回复 【右侧内容,后台自定义】
您需要登录后才可以回帖 登录 | 立即注册

本版积分规则

Archiver|手机版|小黑屋| 中国高清网 |网站地图 

GMT+8, 2023-1-30 00:30 , Processed in 0.098281 second(s), 27 queries .

Powered by HDchina X3.4

Copyright 2017-2019©HDchina.All right reserved

返回顶部 联系我们