查看: 97|回复: 4

[2160p] 世界末日 Armageddon.Time.2022.2160p.MA.WEB-DL.DDP5.1.Atmos.DV.MKV.x265-CM 19.87GB

[复制链接]
蓝光币
66 枚
发表于 2022-11-23 18:25:45 | 显示全部楼层 |阅读模式
[img][/img]

◎标  题 天下末日
◎译  名 天下末日的时辰
◎片  名 Armageddon Time
◎年  代 2022
◎产  地 巴西 / 美国
◎类  别 剧情
◎语  言 英语
◎上映日期 2022-05-19(戛纳电影节) / 2022-11-04(美国)
◎IMDb评分 7/10 (2247人评价)
◎IMDb链接 https://www.imdb.com/title/tt10343028/
◎豆瓣评分 7.0/10 (332人评价)
◎豆瓣链接 https://movie.douban.com/subject/33451890/
◎片  长 115分钟
◎导  演 詹姆斯·格雷 James Gray
◎编  剧 詹姆斯·格雷 James Gray
◎演  员 安妮·海瑟薇 Anne Hathaway
       杰瑞米·斯特朗 Jeremy Strong
       安东尼·霍普金斯 Anthony Hopkins
       杰西卡·查斯坦 Jessica Chastain
       多米尼克·隆巴多兹 Domenick Lombardozzi
       托芙·菲尔德舒 Tovah Feldshuh
       玛西娅·让·库尔茨 Marcia Jean Kurtz
       泰迪·库卢卡 Teddy Coluca
       迈克尔·班克斯 Michael Banks Repeta
       安德鲁·波尔克 Andrew Polk
       詹姆斯·格雷 James Gray
◎简  介

  天下末日是一部很是小我化的电影,展现了家庭的气力和一代人对美国梦的追求
  1. Video
  2. ID                                       : 1
  3. Format                                   : HEVC
  4. Format/Info                              : High Efficiency Video Coding
  5. Format profile                           : Main [email protected]@High
  6. HDR format                               : Dolby Vision, Version 1.0, dvhe.05.06, BL+RPU
  7. Codec ID                                 : V_MPEGH/ISO/HEVC
  8. Duration                                 : 1 h 54 min
  9. Bit rate                                 : 24.0 Mb/s
  10. Width                                    : 3 840 pixels
  11. Height                                   : 2 160 pixels
  12. Display aspect ratio                     : 16:9
  13. Frame rate mode                          : Constant
  14. Frame rate                               : 23.976 (24000/1001/189150) FPS
  15. Color space                              : YUV
  16. Chroma subsampling                       : 4:2:0 (Type 0)
  17. Bit depth                                : 10 bits
  18. Bits/(Pixel*Frame)                       : 0.121
  19. Stream size                              : 19.2 GiB (97%)
  20. Language                                 : English
  21. Default                                  : Yes
  22. Forced                                   : No
  23. Color range                              : Full
  24. Audio
  25. ID                                       : 2
  26. Format                                   : E-AC-3 JOC
  27. Format/Info                              : Enhanced AC-3 with Joint Object Coding
  28. Commercial name                          : Dolby Digital Plus with Dolby Atmos
  29. Codec ID                                 : A_EAC3
  30. Duration                                 : 1 h 54 min
  31. Bit rate mode                            : Constant
  32. Bit rate                                 : 768 kb/s
  33. Channel(s)                               : 6 channels
  34. Channel layout                           : L R C LFE Ls Rs
  35. Sampling rate                            : 48.0 kHz
  36. Frame rate                               : 31.250 FPS (1536 SPF)
  37. Compression mode                         : Lossy
  38. Stream size                              : 630 MiB (3%)
  39. Language                                 : English
  40. Service kind                             : Complete Main
  41. Default                                  : Yes
  42. Forced                                   : No
  43. Complexity index                         : 16
  44. Number of dynamic objects                : 15
  45. Bed channel count                        : 1 channel
  46. Bed channel configuration                : LFE
  47. Text #1
  48. ID                                       : 3
  49. Format                                   : UTF-8
  50. Codec ID                                 : S_TEXT/UTF8
  51. Codec ID/Info                            : UTF-8 Plain Text
  52. Duration                                 : 1 h 51 min
  53. Bit rate                                 : 70 b/s
  54. Frame rate                               : 0.303 FPS
  55. Count of elements                        : 2027
  56. Stream size                              : 57.5 KiB (0%)
  57. Language                                 : English
  58. Default                                  : No
  59. Forced                                   : No
  60. Text #2
  61. ID                                       : 4
  62. Format                                   : UTF-8
  63. Codec ID                                 : S_TEXT/UTF8
  64. Codec ID/Info                            : UTF-8 Plain Text
  65. Duration                                 : 1 h 53 min
  66. Bit rate                                 : 78 b/s
  67. Frame rate                               : 0.324 FPS
  68. Count of elements                        : 2213
  69. Stream size                              : 65.6 KiB (0%)
  70. Title                                    : SDH
  71. Language                                 : English
  72. Default                                  : No
  73. Forced                                   : No
  74. Text #3
  75. ID                                       : 5
  76. Format                                   : UTF-8
  77. Codec ID                                 : S_TEXT/UTF8
  78. Codec ID/Info                            : UTF-8 Plain Text
  79. Duration                                 : 1 h 53 min
  80. Bit rate                                 : 62 b/s
  81. Frame rate                               : 0.269 FPS
  82. Count of elements                        : 1831
  83. Stream size                              : 52.2 KiB (0%)
  84. Title                                    : Latin American
  85. Language                                 : Spanish
  86. Default                                  : No
  87. Forced                                   : No
  88. Text #4
  89. ID                                       : 6
  90. Format                                   : UTF-8
  91. Codec ID                                 : S_TEXT/UTF8
  92. Codec ID/Info                            : UTF-8 Plain Text
  93. Duration                                 : 1 h 45 min
  94. Bit rate                                 : 67 b/s
  95. Frame rate                               : 0.257 FPS
  96. Count of elements                        : 1622
  97. Stream size                              : 52.1 KiB (0%)
  98. Title                                    : Canadian
  99. Language                                 : French
  100. Default                                  : No
  101. Forced                                   : No
复制代码




                                       
                                       

                                       
                                       
                                       




Armageddon.Time.2022.2160p.MA.WEB-DL.DDP5.1.Atmos.DV.MKV.x265-CM.torrent (25.49 KB, 下载次数: 8)
回复

使用道具 举报

蓝光币
50 枚
QQ
发表于 2022-11-23 18:51:05 | 显示全部楼层

既然你诚信诚意的推荐了,那我就勉为其难的看看吧!中国高清电影网不走平凡路。
回复

使用道具 举报

蓝光币
2332 枚
发表于 2022-11-23 20:43:00 | 显示全部楼层

我看不错噢 谢谢楼主!中国高清电影网越来越好!
回复

使用道具 举报

蓝光币
0 枚
QQ
发表于 2022-11-24 08:35:25 | 显示全部楼层

Q   1814 993993 售  站~~街   会~~所  学  妹  各   种    类  型   资  料

Q   1814 993993 售  站~~街   会~~所  学  妹  各   种    类  型   资  料


回复

使用道具 举报

蓝光币
13 枚
发表于 2022-11-24 21:30:04 | 显示全部楼层
楼主发贴辛苦了,谢谢楼主分享!我觉得中国高清电影网是注册对了!
回复

使用道具 举报

懒得打字嘛,点击右侧快捷回复 【右侧内容,后台自定义】
您需要登录后才可以回帖 登录 | 立即注册

本版积分规则

Archiver|手机版|小黑屋| 中国高清网 |网站地图 

GMT+8, 2022-12-4 23:01 , Processed in 0.095123 second(s), 27 queries .

Powered by HDchina X3.4

Copyright 2017-2019©HDchina.All right reserved

返回顶部 联系我们