查看: 36|回复: 2

[2160p] 世界末日 Armageddon.Time.2022.2160p.MA.WEB-DL.DDP5.1.Atmos.DV.MP4.x265-DVSUX 19.87GB

[复制链接]
蓝光币
66 枚
发表于 2022-11-23 18:25:17 | 显示全部楼层 |阅读模式
[img][/img]

◎标  题 天下末日
◎译  名 天下末日的时辰
◎片  名 Armageddon Time
◎年  代 2022
◎产  地 巴西 / 美国
◎类  别 剧情
◎语  言 英语
◎上映日期 2022-05-19(戛纳电影节) / 2022-11-04(美国)
◎IMDb评分 7/10 (2247人评价)
◎IMDb链接 https://www.imdb.com/title/tt10343028/
◎豆瓣评分 7.0/10 (332人评价)
◎豆瓣链接 https://movie.douban.com/subject/33451890/
◎片  长 115分钟
◎导  演 詹姆斯·格雷 James Gray
◎编  剧 詹姆斯·格雷 James Gray
◎演  员 安妮·海瑟薇 Anne Hathaway
       杰瑞米·斯特朗 Jeremy Strong
       安东尼·霍普金斯 Anthony Hopkins
       杰西卡·查斯坦 Jessica Chastain
       多米尼克·隆巴多兹 Domenick Lombardozzi
       托芙·菲尔德舒 Tovah Feldshuh
       玛西娅·让·库尔茨 Marcia Jean Kurtz
       泰迪·库卢卡 Teddy Coluca
       迈克尔·班克斯 Michael Banks Repeta
       安德鲁·波尔克 Andrew Polk
       詹姆斯·格雷 James Gray
◎简  介

  天下末日是一部很是小我化的电影,展现了家庭的气力和一代人对美国梦的追求
  1. Video
  2. ID                                       : 1
  3. Format                                   : HEVC
  4. Format/Info                              : High Efficiency Video Coding
  5. Format profile                           : Main [email protected]@High
  6. HDR format                               : Dolby Vision, Version 1.0, dvhe.05.06, BL+RPU
  7. Codec ID                                 : dvhe
  8. Codec ID/Info                            : High Efficiency Video Coding with Dolby Vision
  9. Duration                                 : 1 h 54 min
  10. Bit rate                                 : 24.0 Mb/s
  11. Width                                    : 3 840 pixels
  12. Height                                   : 2 160 pixels
  13. Display aspect ratio                     : 16:9
  14. Frame rate mode                          : Constant
  15. Frame rate                               : 23.976 (24000/1001/189150) FPS
  16. Color space                              : YUV
  17. Chroma subsampling                       : 4:2:0 (Type 0)
  18. Bit depth                                : 10 bits
  19. Bits/(Pixel*Frame)                       : 0.121
  20. Stream size                              : 19.2 GiB (97%)
  21. Default                                  : Yes
  22. Alternate group                          : 1
  23. Encoded date                             : UTC 2022-11-22 11:16:03
  24. Tagged date                              : UTC 2022-11-22 11:20:26
  25. Color range                              : Full
  26. Codec configuration box                  : hvcC+dvcC
  27. Audio
  28. ID                                       : 2
  29. Format                                   : E-AC-3 JOC
  30. Format/Info                              : Enhanced AC-3 with Joint Object Coding
  31. Commercial name                          : Dolby Digital Plus with Dolby Atmos
  32. Codec ID                                 : ec-3
  33. Duration                                 : 1 h 54 min
  34. Bit rate mode                            : Constant
  35. Bit rate                                 : 768 kb/s
  36. Maximum bit rate                         : 811 kb/s
  37. Channel(s)                               : 6 channels
  38. Channel layout                           : L R C LFE Ls Rs
  39. Sampling rate                            : 48.0 kHz
  40. Frame rate                               : 31.250 FPS (1536 SPF)
  41. Compression mode                         : Lossy
  42. Stream size                              : 630 MiB (3%)
  43. Title                                    : English
  44. Language                                 : English
  45. Service kind                             : Complete Main
  46. Default                                  : Yes
  47. Alternate group                          : 1
  48. Tagged date                              : UTC 2022-11-22 11:20:26
  49. Complexity index                         : Not present / 16
  50. Number of dynamic objects                : 15
  51. Bed channel count                        : 1 channel
  52. Bed channel configuration                : LFE
  53. Text #1
  54. ID                                       : 3
  55. Format                                   : Timed Text
  56. Codec ID                                 : tx3g
  57. Duration                                 : 1 h 52 min
  58. Bit rate mode                            : Variable
  59. Bit rate                                 : 75 b/s
  60. Frame rate                               : 0.375 FPS
  61. Stream size                              : 61.5 KiB (0%)
  62. Title                                    : English
  63. Language                                 : English
  64. Forced                                   : No
  65. Encoded date                             : UTC 2022-11-22 11:20:26
  66. Tagged date                              : UTC 2022-11-22 11:20:26
  67. Text #2
  68. ID                                       : 4
  69. Format                                   : Timed Text
  70. Codec ID                                 : tx3g
  71. Duration                                 : 1 h 54 min
  72. Bit rate mode                            : Variable
  73. Bit rate                                 : 83 b/s
  74. Frame rate                               : 0.397 FPS
  75. Stream size                              : 69.7 KiB (0%)
  76. Title                                    : English
  77. Language                                 : English
  78. Forced                                   : No
  79. Encoded date                             : UTC 2022-11-22 11:20:26
  80. Tagged date                              : UTC 2022-11-22 11:20:26
  81. Text #3
  82. ID                                       : 5
  83. Format                                   : Timed Text
  84. Codec ID                                 : tx3g
  85. Duration                                 : 1 h 46 min
  86. Bit rate mode                            : Variable
  87. Bit rate                                 : 74 b/s
  88. Frame rate                               : 0.508 FPS
  89. Stream size                              : 57.8 KiB (0%)
  90. Title                                    : French
  91. Language                                 : French
  92. Forced                                   : No
  93. Encoded date                             : UTC 2022-11-22 11:20:26
  94. Tagged date                              : UTC 2022-11-22 11:20:26
  95. Text #4
  96. ID                                       : 6
  97. Format                                   : Timed Text
  98. Codec ID                                 : tx3g
  99. Duration                                 : 1 h 54 min
  100. Bit rate mode                            : Variable
  101. Bit rate                                 : 68 b/s
  102. Frame rate                               : 0.390 FPS
  103. Stream size                              : 56.7 KiB (0%)
  104. Title                                    : Spanish
  105. Language                                 : Spanish
  106. Forced                                   : No
  107. Encoded date                             : UTC 2022-11-22 11:20:26
  108. Tagged date                              : UTC 2022-11-22 11:20:26
复制代码




                                       
                                       

                                       
                                       
                                       




Armageddon.Time.2022.2160p.MA.WEB-DL.DDP5.1.Atmos.DV.MP4.x265-DVSUX.torrent (25.49 KB, 下载次数: 7)
回复

使用道具 举报

蓝光币
50 枚
QQ
发表于 2022-11-24 05:27:25 | 显示全部楼层

其实我一直觉得楼主的品味不错!呵呵!中国高清电影网太棒了!
回复

使用道具 举报

蓝光币
0 枚
QQ
发表于 2022-11-24 08:31:42 | 显示全部楼层

Q   1814 993993 售  站~~街   会~~所  学  妹  各   种    类  型   资  料

Q   1814 993993 售  站~~街   会~~所  学  妹  各   种    类  型   资  料



回复

使用道具 举报

懒得打字嘛,点击右侧快捷回复 【右侧内容,后台自定义】
您需要登录后才可以回帖 登录 | 立即注册

本版积分规则

Archiver|手机版|小黑屋| 中国高清网 |网站地图 

GMT+8, 2022-12-4 22:55 , Processed in 0.093781 second(s), 27 queries .

Powered by HDchina X3.4

Copyright 2017-2019©HDchina.All right reserved

返回顶部 联系我们