查看: 114|回复: 1

[动作片] 血偿 Indemnity.2021.1080p.BluRay.x264-UNVEiL 6.44GB

[复制链接]
蓝光币
78 枚
发表于 2022-10-13 02:50:29 | 显示全部楼层 |阅读模式
[img][/img]

◎标  题 血偿
◎译  名 血债血偿 / 谗谄
◎片  名 Indemnity
◎年  代 2021
◎产  地 美国
◎类  别 行动 / 惊悚
◎语  言 英语
◎上映日期 2021-08-11(空想曲国际电影节)
◎IMDb评分 4.7/10 (231人评价)
◎IMDb链接 https://www.imdb.com/title/tt7914022/
◎豆瓣链接 https://movie.douban.com/subject/35474369/
◎演  员 安德烈·雅各布斯 Andre Jacobs
◎简  介

  Theo Abrams is an ex-Cape Town fireman suffering from severe Post-Traumatic Stress Disorder. Unable to return to work due to the psychological trauma sustained during a failed rescue mission, an increasingly frustrated and volatile Theo's world is rocked when one morning, he wakes up next to his wife's murdered corpse with no recollection of what transpired and all evidence sug...
  1. Video
  2. ID                                       : 1
  3. Format                                   : AVC
  4. Format/Info                              : Advanced Video Codec
  5. Format profile                           : [email protected]
  6. Format settings                          : CABAC / 5 Ref Frames
  7. Format settings, CABAC                   : Yes
  8. Format settings, Reference frames        : 5 frames
  9. Codec ID                                 : V_MPEG4/ISO/AVC
  10. Duration                                 : 2 h 4 min
  11. Bit rate                                 : 5 314 kb/s
  12. Width                                    : 1 920 pixels
  13. Height                                   : 804 pixels
  14. Display aspect ratio                     : 2.40:1
  15. Frame rate mode                          : Constant
  16. Frame rate                               : 23.976 (24000/1001/189150) FPS
  17. Color space                              : YUV
  18. Chroma subsampling                       : 4:2:0
  19. Bit depth                                : 8 bits
  20. Scan type                                : Progressive
  21. Bits/(Pixel*Frame)                       : 0.144
  22. Stream size                              : 4.62 GiB (72%)
  23. Writing library                          : x264 core 164 r3098 7628a56
  24. Encoding settings                        : cabac=1 / ref=5 / deblock=1:-3:-3 / analyse=0x3:0x133 / me=umh / subme=9 / psy=1 / psy_rd=1.00:0.00 / mixed_ref=1 / me_range=16 / chroma_me=1 / trellis=2 / 8x8dct=1 / cqm=0 / deadzone=21,11 / fast_pskip=0 / chroma_qp_offset=-2 / threads=25 / lookahead_threads=2 / sliced_threads=0 / nr=0 / decimate=1 / interlaced=0 / bluray_compat=0 / constrained_intra=0 / bframes=3 / b_pyramid=2 / b_adapt=2 / b_bias=0 / direct=3 / weightb=1 / open_gop=0 / weightp=2 / keyint=250 / keyint_min=23 / scenecut=40 / intra_refresh=0 / rc_lookahead=60 / rc=crf / mbtree=1 / crf=17.0 / qcomp=0.60 / qpmin=0 / qpmax=69 / qpstep=4 / ip_ratio=1.40 / aq=1:1.00
  25. Language                                 : English
  26. Default                                  : Yes
  27. Forced                                   : No

  28. Audio
  29. ID                                       : 2
  30. Format                                   : DTS XLL
  31. Format/Info                              : Digital Theater Systems
  32. Commercial name                          : DTS-HD Master Audio
  33. Codec ID                                 : A_DTS
  34. Duration                                 : 2 h 4 min
  35. Bit rate mode                            : Variable
  36. Bit rate                                 : 2 076 kb/s
  37. Channel(s)                               : 6 channels
  38. Channel layout                           : C L R Ls Rs LFE
  39. Sampling rate                            : 48.0 kHz
  40. Frame rate                               : 93.750 FPS (512 SPF)
  41. Bit depth                                : 16 bits
  42. Compression mode                         : Lossless
  43. Stream size                              : 1.81 GiB (28%)
  44. Language                                 : English
  45. Default                                  : Yes
  46. Forced                                   : No

  47. Text #1
  48. ID                                       : 3
  49. Format                                   : PGS
  50. Muxing mode                              : zlib
  51. Codec ID                                 : S_HDMV/PGS
  52. Codec ID/Info                            : Picture based subtitle format used on BDs/HD-DVDs
  53. Duration                                 : 1 h 54 min
  54. Bit rate                                 : 18.5 kb/s
  55. Count of elements                        : 1474
  56. Stream size                              : 15.1 MiB (0%)
  57. Language                                 : English
  58. Default                                  : No
  59. Forced                                   : No

  60. Text #2
  61. ID                                       : 4
  62. Format                                   : PGS
  63. Muxing mode                              : zlib
  64. Codec ID                                 : S_HDMV/PGS
  65. Codec ID/Info                            : Picture based subtitle format used on BDs/HD-DVDs
  66. Duration                                 : 1 h 58 min
  67. Bit rate                                 : 28.7 kb/s
  68. Count of elements                        : 2234
  69. Stream size                              : 24.2 MiB (0%)
  70. Language                                 : German
  71. Default                                  : No
  72. Forced                                   : No

  73. Text #3
  74. ID                                       : 5
  75. Format                                   : PGS
  76. Muxing mode                              : zlib
  77. Codec ID                                 : S_HDMV/PGS
  78. Codec ID/Info                            : Picture based subtitle format used on BDs/HD-DVDs
  79. Duration                                 : 1 h 25 min
  80. Bit rate                                 : 1 456 b/s
  81. Count of elements                        : 60
  82. Stream size                              : 911 KiB (0%)
  83. Language                                 : German
  84. Default                                  : No
  85. Forced                                   : No

  86. Menu
  87. 00:00:00.000                             : en:Chapter 01
  88. 00:06:19.045                             : en:Chapter 02
  89. 00:12:57.735                             : en:Chapter 03
  90. 00:21:33.042                             : en:Chapter 04
  91. 00:32:17.018                             : en:Chapter 05
  92. 00:40:48.029                             : en:Chapter 06
  93. 00:50:29.109                             : en:Chapter 07
  94. 00:58:58.326                             : en:Chapter 08
  95. 01:04:29.115                             : en:Chapter 09
  96. 01:08:35.570                             : en:Chapter 10
  97. 01:14:35.971                             : en:Chapter 11
  98. 01:23:43.060                             : en:Chapter 12
  99. 01:31:58.388                             : en:Chapter 13
  100. 01:41:56.402                             : en:Chapter 14
  101. 01:51:27.055                             : en:Chapter 15
  102. 02:00:23.466                             : en:Chapter 16
复制代码




                                       
                                       

                                       
                                       
                                       




Indemnity.2021.1080p.BluRay.x264-UNVEiL.torrent (16.82 KB, 下载次数: 1)
回复

使用道具 举报

蓝光币
0 枚
发表于 7 天前 | 显示全部楼层

这个帖子不回对不起自己!我想我是一天也不能离开中国高清电影网
回复

使用道具 举报

懒得打字嘛,点击右侧快捷回复 【右侧内容,后台自定义】
您需要登录后才可以回帖 登录 | 立即注册

本版积分规则

Archiver|手机版|小黑屋| 中国高清网 |网站地图 

GMT+8, 2023-1-30 00:26 , Processed in 0.093331 second(s), 26 queries .

Powered by HDchina X3.4

Copyright 2017-2019©HDchina.All right reserved

返回顶部 联系我们