查看: 108|回复: 1

[动作片] 交易室 Wire.Room.2022.1080p.BluRay.x264-WoAT 7.45GB

[复制链接]
蓝光币
78 枚
发表于 2022-10-13 02:50:27 | 显示全部楼层 |阅读模式
[img][/img]

◎标  题 买卖室
◎译  名 监侦危机 / 监侦室 / 监视危机
◎片  名 Wire Room
◎年  代 2022
◎产  地 美国
◎类  别 行动 / 犯罪
◎语  言 英语
◎上映日期 2022-09-02(美国)
◎IMDb链接 https://www.imdb.com/title/tt16527290/
◎豆瓣链接 https://movie.douban.com/subject/35718110/
◎导  演 马特·伊斯坎达里 Matt Eskandari
◎演  员 布鲁斯·威利斯 Bruce Willis
       凯文·狄龙 Kevin Dillon
       奥利弗·特雷韦纳 Oliver Trevena
       J.M. Wilkerson J.M. Wilkerson
◎简  介

  埃迪·弗林(奥利弗·特雷韦纳饰演)是一位污名昭著的爱尔兰军械商,在一场血腥的帮派战争后流亡,最初在美国充任巴哈卡特尔的中心人。
  1. Video
  2. ID                                       : 1
  3. Format                                   : AVC
  4. Format/Info                              : Advanced Video Codec
  5. Format profile                           : [email protected]
  6. Format settings                          : CABAC / 4 Ref Frames
  7. Format settings, CABAC                   : Yes
  8. Format settings, Reference frames        : 4 frames
  9. Codec ID                                 : V_MPEG4/ISO/AVC
  10. Duration                                 : 1 h 36 min
  11. Bit rate                                 : 7 645 kb/s
  12. Width                                    : 1 920 pixels
  13. Height                                   : 960 pixels
  14. Display aspect ratio                     : 2.000
  15. Frame rate mode                          : Constant
  16. Frame rate                               : 23.976 (24000/1001/189150) FPS
  17. Color space                              : YUV
  18. Chroma subsampling                       : 4:2:0
  19. Bit depth                                : 8 bits
  20. Scan type                                : Progressive
  21. Bits/(Pixel*Frame)                       : 0.173
  22. Stream size                              : 5.16 GiB (69%)
  23. Writing library                          : x264 core 164 r3098 7628a56
  24. Encoding settings                        : cabac=1 / ref=4 / deblock=1:-3:-3 / analyse=0x3:0x133 / me=umh / subme=9 / psy=1 / psy_rd=1.00:0.00 / mixed_ref=1 / me_range=32 / chroma_me=1 / trellis=2 / 8x8dct=1 / cqm=0 / deadzone=21,11 / fast_pskip=0 / chroma_qp_offset=-2 / threads=24 / lookahead_threads=4 / sliced_threads=0 / nr=0 / decimate=0 / interlaced=0 / bluray_compat=0 / constrained_intra=0 / bframes=8 / b_pyramid=2 / b_adapt=2 / b_bias=0 / direct=3 / weightb=1 / open_gop=0 / weightp=2 / keyint=250 / keyint_min=23 / scenecut=40 / intra_refresh=0 / rc_lookahead=60 / rc=crf / mbtree=1 / crf=17.0 / qcomp=0.60 / qpmin=0 / qpmax=69 / qpstep=4 / ip_ratio=1.40 / aq=3:0.88
  25. Default                                  : Yes
  26. Forced                                   : No
  27. Color range                              : Limited
  28. Color primaries                          : BT.709
  29. Transfer characteristics                 : BT.709
  30. Matrix coefficients                      : BT.709

  31. Audio
  32. ID                                       : 2
  33. Format                                   : DTS XLL
  34. Format/Info                              : Digital Theater Systems
  35. Commercial name                          : DTS-HD Master Audio
  36. Codec ID                                 : A_DTS
  37. Duration                                 : 1 h 36 min
  38. Bit rate mode                            : Variable
  39. Bit rate                                 : 3 314 kb/s
  40. Channel(s)                               : 6 channels
  41. Channel layout                           : C L R Ls Rs LFE
  42. Sampling rate                            : 48.0 kHz
  43. Frame rate                               : 93.750 FPS (512 SPF)
  44. Bit depth                                : 24 bits
  45. Compression mode                         : Lossless
  46. Stream size                              : 2.24 GiB (30%)
  47. Title                                    : English
  48. Language                                 : English
  49. Default                                  : No
  50. Forced                                   : No

  51. Text #1
  52. ID                                       : 3
  53. Format                                   : PGS
  54. Muxing mode                              : zlib
  55. Codec ID                                 : S_HDMV/PGS
  56. Codec ID/Info                            : Picture based subtitle format used on BDs/HD-DVDs
  57. Duration                                 : 1 h 31 min
  58. Bit rate                                 : 38.9 kb/s
  59. Count of elements                        : 2670
  60. Stream size                              : 25.6 MiB (0%)
  61. Title                                    : English
  62. Language                                 : English
  63. Default                                  : No
  64. Forced                                   : No

  65. Text #2
  66. ID                                       : 4
  67. Format                                   : PGS
  68. Muxing mode                              : zlib
  69. Codec ID                                 : S_HDMV/PGS
  70. Codec ID/Info                            : Picture based subtitle format used on BDs/HD-DVDs
  71. Duration                                 : 1 h 34 min
  72. Bit rate                                 : 33.3 kb/s
  73. Count of elements                        : 2346
  74. Stream size                              : 22.4 MiB (0%)
  75. Title                                    : Spanish
  76. Language                                 : Spanish
  77. Default                                  : No
  78. Forced                                   : No

  79. Text #3
  80. ID                                       : 5
  81. Format                                   : PGS
  82. Muxing mode                              : zlib
  83. Codec ID                                 : S_HDMV/PGS
  84. Codec ID/Info                            : Picture based subtitle format used on BDs/HD-DVDs
  85. Duration                                 : 1 h 30 min
  86. Bit rate                                 : 32.3 kb/s
  87. Count of elements                        : 2166
  88. Stream size                              : 20.9 MiB (0%)
  89. Title                                    : French
  90. Language                                 : French
  91. Default                                  : No
  92. Forced                                   : No

  93. Text #4
  94. ID                                       : 6
  95. Format                                   : PGS
  96. Muxing mode                              : zlib
  97. Codec ID                                 : S_HDMV/PGS
  98. Codec ID/Info                            : Picture based subtitle format used on BDs/HD-DVDs
  99. Duration                                 : 1 h 31 min
  100. Bit rate                                 : 33.2 kb/s
  101. Count of elements                        : 2640
  102. Stream size                              : 21.8 MiB (0%)
  103. Title                                    : Portuguese
  104. Language                                 : Portuguese
  105. Default                                  : No
  106. Forced                                   : No

  107. Menu
  108. 00:00:00.000                             : :Chapter 01
  109. 00:11:16.676                             : :Chapter 02
  110. 00:20:13.212                             : :Chapter 03
  111. 00:26:52.611                             : :Chapter 04
  112. 00:35:09.107                             : :Chapter 05
  113. 00:43:00.578                             : :Chapter 06
  114. 00:52:10.127                             : :Chapter 07
  115. 00:57:15.432                             : :Chapter 08
  116. 01:06:26.983                             : :Chapter 09
  117. 01:13:15.391                             : :Chapter 10
  118. 01:22:24.982                             : :Chapter 11
  119. 01:32:43.558                             : :Chapter 12
复制代码




                                       
                                       

                                       
                                       
                                       




Wire.Room.2022.1080p.BluRay.x264-WoAT.torrent (19.33 KB, 下载次数: 4)
回复

使用道具 举报

蓝光币
0 枚
发表于 7 天前 | 显示全部楼层

这东西我收了!谢谢楼主!中国高清电影网真好!
回复

使用道具 举报

懒得打字嘛,点击右侧快捷回复 【右侧内容,后台自定义】
您需要登录后才可以回帖 登录 | 立即注册

本版积分规则

Archiver|手机版|小黑屋| 中国高清网 |网站地图 

GMT+8, 2023-1-30 00:16 , Processed in 0.094697 second(s), 26 queries .

Powered by HDchina X3.4

Copyright 2017-2019©HDchina.All right reserved

返回顶部 联系我们