查看: 38|回复: 0

[2160p] 暗影特工 Section.8.2022.2160p.WEB-DL.x265.10bit.SDR.DD5.1-CM 8.45GB

[复制链接]
蓝光币
44 枚
发表于 6 天前 | 显示全部楼层 |阅读模式
[img][/img]

◎译  名 阴影奸细 / Section 8
◎片  名 Section Eight
◎年  代 2022
◎产  地 美国
◎类  别 行动 / 犯罪
◎语  言 英语
◎上映日期 2022-09-23(美国)
◎IMDb链接 https://www.imdb.com/title/tt14950412/
◎豆瓣链接 https://movie.douban.com/subject/35737733/
◎片  长 98分钟
◎导  演 克里斯蒂安·塞斯玛 Christian Sesma (id:1437977)
◎编  剧 查德·洛 Chad Law (id:1033654)
◎演  员 斯科特·阿金斯 Scott Adkins (id:1017912)
       瑞恩·柯万腾 Ryan Kwanten (id:1036305)
       杜夫·龙格尔 Dolph Lundgren (id:1040508)
       米基·洛克 Mickey Rourke (id:1035646)
       德蒙特·莫罗尼 Dermot Mulroney (id:1040534)
       罗伯特·拉萨多 Robert LaSardo (id:1108075)
       保罗·斯隆 Paul Sloan (id:1000788)
◎简  介

  一位退役兵士在为遇害的家人复仇后被捕入狱,而在他出狱后获得了奥秘政府部分的招募。
  1. Video
  2. ID                                       : 1
  3. Format                                   : HEVC
  4. Format/Info                              : High Efficiency Video Coding
  5. Format profile                           : Main [email protected]@High
  6. Codec ID                                 : V_MPEGH/ISO/HEVC
  7. Duration                                 : 1 h 38 min
  8. Bit rate                                 : 12.0 Mb/s
  9. Width                                    : 3 836 pixels
  10. Height                                   : 1 592 pixels
  11. Display aspect ratio                     : 2.40:1
  12. Frame rate mode                          : Constant
  13. Frame rate                               : 23.976 FPS
  14. Color space                              : YUV
  15. Chroma subsampling                       : 4:2:0
  16. Bit depth                                : 10 bits
  17. Bits/(Pixel*Frame)                       : 0.082
  18. Stream size                              : 8.19 GiB (97%)
  19. Language                                 : English
  20. Default                                  : Yes
  21. Forced                                   : No
  22. Color range                              : Limited
  23. Color primaries                          : BT.709
  24. Transfer characteristics                 : BT.709
  25. Matrix coefficients                      : BT.709

  26. Audio
  27. ID                                       : 2
  28. Format                                   : AC-3
  29. Format/Info                              : Audio Coding 3
  30. Commercial name                          : Dolby Digital
  31. Codec ID                                 : A_AC3
  32. Duration                                 : 1 h 38 min
  33. Bit rate mode                            : Constant
  34. Bit rate                                 : 384 kb/s
  35. Channel(s)                               : 6 channels
  36. Channel layout                           : L R C LFE Ls Rs
  37. Sampling rate                            : 48.0 kHz
  38. Frame rate                               : 31.250 FPS (1536 SPF)
  39. Compression mode                         : Lossy
  40. Stream size                              : 269 MiB (3%)
  41. Language                                 : English
  42. Service kind                             : Complete Main
  43. Default                                  : Yes
  44. Forced                                   : No

  45. Text #1
  46. ID                                       : 3
  47. Format                                   : UTF-8
  48. Codec ID                                 : S_TEXT/UTF8
  49. Codec ID/Info                            : UTF-8 Plain Text
  50. Duration                                 : 1 h 35 min
  51. Bit rate                                 : 53 b/s
  52. Frame rate                               : 0.235 FPS
  53. Count of elements                        : 1353
  54. Stream size                              : 37.8 KiB (0%)
  55. Title                                    : SDH
  56. Language                                 : English
  57. Default                                  : No
  58. Forced                                   : No

  59. Text #2
  60. ID                                       : 4
  61. Format                                   : UTF-8
  62. Codec ID                                 : S_TEXT/UTF8
  63. Codec ID/Info                            : UTF-8 Plain Text
  64. Duration                                 : 1 h 34 min
  65. Bit rate                                 : 50 b/s
  66. Frame rate                               : 0.218 FPS
  67. Count of elements                        : 1233
  68. Stream size                              : 34.9 KiB (0%)
  69. Language                                 : English
  70. Default                                  : No
  71. Forced                                   : No

  72. Text #3
  73. ID                                       : 5
  74. Format                                   : UTF-8
  75. Codec ID                                 : S_TEXT/UTF8
  76. Codec ID/Info                            : UTF-8 Plain Text
  77. Duration                                 : 1 h 30 min
  78. Bit rate                                 : 49 b/s
  79. Frame rate                               : 0.214 FPS
  80. Count of elements                        : 1169
  81. Stream size                              : 32.9 KiB (0%)
  82. Title                                    : Latin American
  83. Language                                 : Spanish
  84. Default                                  : No
  85. Forced                                   : No

  86. Text #4
  87. ID                                       : 6
  88. Format                                   : UTF-8
  89. Codec ID                                 : S_TEXT/UTF8
  90. Codec ID/Info                            : UTF-8 Plain Text
  91. Duration                                 : 1 h 30 min
  92. Bit rate                                 : 49 b/s
  93. Frame rate                               : 0.208 FPS
  94. Count of elements                        : 1134
  95. Stream size                              : 32.8 KiB (0%)
  96. Language                                 : French
  97. Default                                  : No
  98. Forced                                   : No

  99. Menu
  100. 00:00:00.000                             : en:Chapter 01
  101. 00:10:03.603                             : en:Chapter 02
  102. 00:19:59.783                             : en:Chapter 03
  103. 00:29:43.783                             : en:Chapter 04
  104. 00:42:57.786                             : en:Chapter 05
  105. 00:51:15.950                             : en:Chapter 06
  106. 00:59:34.324                             : en:Chapter 07
  107. 01:10:11.211                             : en:Chapter 08
  108. 01:21:33.018                             : en:Chapter 09
  109. 01:31:49.926                             : en:Chapter 10
复制代码




                                       
                                       

                                       
                                       
                                       




The.Infernal.Machine.2022.2160p.WEB-DL.x265.10bit.HDR.DD5.1-CM.torrent (14.87 KB, 下载次数: 6)
回复

使用道具 举报

懒得打字嘛,点击右侧快捷回复 【右侧内容,后台自定义】
您需要登录后才可以回帖 登录 | 立即注册

本版积分规则

Archiver|手机版|小黑屋| 中国高清网 |网站地图 

GMT+8, 2022-9-29 12:57 , Processed in 0.090263 second(s), 26 queries .

Powered by HDchina X3.4

Copyright 2017-2019©HDchina.All right reserved

返回顶部 联系我们