查看: 17|回复: 0

[2160p] 执法者 The.Enforcer.2022.2160p.WEB-DL.x265.10bit.SDR.DD5.1-CM 7.68GB

[复制链接]
蓝光币
44 枚
发表于 6 天前 | 显示全部楼层 |阅读模式
[img][/img]

◎译  名 法律者
◎片  名 The Enforcer
◎年  代 2022
◎产  地 美国
◎类  别 惊悚
◎语  言 英语
◎上映日期 2022-09-22(美国)
◎IMDb链接 https://www.imdb.com/title/tt14857730/
◎豆瓣链接 https://movie.douban.com/subject/35599332/
◎导  演 李查德·休斯 Richard Hughes (id:1462120)
◎编  剧 W·彼得·伊利夫 W. Peter Iliff (id:1324299)
◎演  员 安东尼奥·班德拉斯 Antonio Banderas (id:1022582)
       凯特·波茨沃斯 Kate Bosworth (id:1004855)
       马克·史姑娘 Mark Rhino Smith (id:1175204)
       莫让·阿里亚 Mojean Aria (id:1461029)
       亚伦·科恩 Aaron Cohen (id:1032928)
       Alexis Ren Alexis Ren (id:1450557)
◎简  介

  一个法律者不能不牺牲一切来拯救一个年轻的女孩,这个女孩是他从他的女老板那边结识的,她介入了收集性买卖。
  1. Video
  2. ID                                       : 1
  3. Format                                   : HEVC
  4. Format/Info                              : High Efficiency Video Coding
  5. Format profile                           : Main [email protected]@High
  6. Codec ID                                 : V_MPEGH/ISO/HEVC
  7. Duration                                 : 1 h 30 min
  8. Bit rate                                 : 11.7 Mb/s
  9. Width                                    : 3 832 pixels
  10. Height                                   : 1 608 pixels
  11. Display aspect ratio                     : 2.40:1
  12. Frame rate mode                          : Constant
  13. Frame rate                               : 23.976 FPS
  14. Color space                              : YUV
  15. Chroma subsampling                       : 4:2:0
  16. Bit depth                                : 10 bits
  17. Bits/(Pixel*Frame)                       : 0.079
  18. Stream size                              : 7.43 GiB (97%)
  19. Language                                 : English
  20. Default                                  : Yes
  21. Forced                                   : No
  22. Color range                              : Limited
  23. Color primaries                          : BT.709
  24. Transfer characteristics                 : BT.709
  25. Matrix coefficients                      : BT.709
  26. Audio
  27. ID                                       : 2
  28. Format                                   : AC-3
  29. Format/Info                              : Audio Coding 3
  30. Commercial name                          : Dolby Digital
  31. Codec ID                                 : A_AC3
  32. Duration                                 : 1 h 30 min
  33. Bit rate mode                            : Constant
  34. Bit rate                                 : 384 kb/s
  35. Channel(s)                               : 6 channels
  36. Channel layout                           : L R C LFE Ls Rs
  37. Sampling rate                            : 48.0 kHz
  38. Frame rate                               : 31.250 FPS (1536 SPF)
  39. Compression mode                         : Lossy
  40. Stream size                              : 249 MiB (3%)
  41. Language                                 : English
  42. Service kind                             : Complete Main
  43. Default                                  : Yes
  44. Forced                                   : No
  45. Text #1
  46. ID                                       : 3
  47. Format                                   : UTF-8
  48. Codec ID                                 : S_TEXT/UTF8
  49. Codec ID/Info                            : UTF-8 Plain Text
  50. Duration                                 : 1 h 24 min
  51. Bit rate                                 : 58 b/s
  52. Frame rate                               : 0.273 FPS
  53. Count of elements                        : 1391
  54. Stream size                              : 36.1 KiB (0%)
  55. Title                                    : SDH
  56. Language                                 : English
  57. Default                                  : No
  58. Forced                                   : No
  59. Text #2
  60. ID                                       : 4
  61. Format                                   : UTF-8
  62. Codec ID                                 : S_TEXT/UTF8
  63. Codec ID/Info                            : UTF-8 Plain Text
  64. Duration                                 : 1 h 24 min
  65. Bit rate                                 : 50 b/s
  66. Frame rate                               : 0.220 FPS
  67. Count of elements                        : 1114
  68. Stream size                              : 31.0 KiB (0%)
  69. Language                                 : English
  70. Default                                  : No
  71. Forced                                   : No
  72. Menu
  73. 00:00:00.000                             : en:Chapter 01
  74. 00:05:28.578                             : en:Chapter 02
  75. 00:11:22.015                             : en:Chapter 03
  76. 00:15:29.429                             : en:Chapter 04
  77. 00:20:22.263                             : en:Chapter 05
  78. 00:25:28.862                             : en:Chapter 06
  79. 00:29:52.375                             : en:Chapter 07
  80. 00:36:20.263                             : en:Chapter 08
  81. 00:41:10.387                             : en:Chapter 09
  82. 00:46:31.583                             : en:Chapter 10
  83. 00:51:04.272                             : en:Chapter 11
  84. 00:59:33.365                             : en:Chapter 12
  85. 01:05:02.819                             : en:Chapter 13
  86. 01:10:12.128                             : en:Chapter 14
  87. 01:16:57.242                             : en:Chapter 15
复制代码




                                       
                                       

                                       
                                       
                                       




The.Enforcer.2022.2160p.WEB-DL.x265.10bit.SDR.DD5.1-CM.torrent (19.81 KB, 下载次数: 0)
回复

使用道具 举报

懒得打字嘛,点击右侧快捷回复 【右侧内容,后台自定义】
您需要登录后才可以回帖 登录 | 立即注册

本版积分规则

Archiver|手机版|小黑屋| 中国高清网 |网站地图 

GMT+8, 2022-9-29 12:46 , Processed in 0.090488 second(s), 26 queries .

Powered by HDchina X3.4

Copyright 2017-2019©HDchina.All right reserved

返回顶部 联系我们