查看: 24|回复: 0

[2160p] 挖掘 Dig.2022.2160p.WEB-DL.x265.10bit.SDR.DD5.1-CM 13.06GB

[复制链接]
蓝光币
44 枚
发表于 6 天前 | 显示全部楼层 |阅读模式
[img][/img]

◎标  题 挖掘
◎译  名 父女危机 / 聋哑父女求生记
◎片  名 Dig
◎年  代 2022
◎产  地 美国
◎类  别 惊悚
◎语  言 英语
◎IMDb链接 https://www.imdb.com/title/tt14830582/
◎豆瓣链接 https://movie.douban.com/subject/35763097/
◎片  长 88分钟
◎简  介

  A father and his daughter, suffering from major hearing loss, arrive at a construction site for work. They are soon taken hostage by a dangerous couple, and must work together to outsmart their captors and survive the night.
  1. Video
  2. ID                                       : 1
  3. Format                                   : HEVC
  4. Format/Info                              : High Efficiency Video Coding
  5. Format profile                           : Main [email protected]@High
  6. Codec ID                                 : V_MPEGH/ISO/HEVC
  7. Duration                                 : 1 h 29 min
  8. Bit rate                                 : 20.5 Mb/s
  9. Width                                    : 3 828 pixels
  10. Height                                   : 1 596 pixels
  11. Display aspect ratio                     : 2.40:1
  12. Frame rate mode                          : Constant
  13. Frame rate                               : 23.976 FPS
  14. Color space                              : YUV
  15. Chroma subsampling                       : 4:2:0
  16. Bit depth                                : 10 bits
  17. Bits/(Pixel*Frame)                       : 0.140
  18. Stream size                              : 12.8 GiB (98%)
  19. Language                                 : English
  20. Default                                  : Yes
  21. Forced                                   : No
  22. Color range                              : Limited
  23. Color primaries                          : BT.709
  24. Transfer characteristics                 : BT.709
  25. Matrix coefficients                      : BT.709

  26. Audio
  27. ID                                       : 2
  28. Format                                   : AC-3
  29. Format/Info                              : Audio Coding 3
  30. Commercial name                          : Dolby Digital
  31. Codec ID                                 : A_AC3
  32. Duration                                 : 1 h 29 min
  33. Bit rate mode                            : Constant
  34. Bit rate                                 : 384 kb/s
  35. Channel(s)                               : 6 channels
  36. Channel layout                           : L R C LFE Ls Rs
  37. Sampling rate                            : 48.0 kHz
  38. Frame rate                               : 31.250 FPS (1536 SPF)
  39. Compression mode                         : Lossy
  40. Stream size                              : 246 MiB (2%)
  41. Language                                 : English
  42. Service kind                             : Complete Main
  43. Default                                  : Yes
  44. Forced                                   : No

  45. Text #1
  46. ID                                       : 3
  47. Format                                   : UTF-8
  48. Codec ID                                 : S_TEXT/UTF8
  49. Codec ID/Info                            : UTF-8 Plain Text
  50. Duration                                 : 1 h 26 min
  51. Bit rate                                 : 79 b/s
  52. Frame rate                               : 0.295 FPS
  53. Count of elements                        : 1535
  54. Stream size                              : 50.4 KiB (0%)
  55. Title                                    : SDH
  56. Language                                 : English
  57. Default                                  : No
  58. Forced                                   : No

  59. Text #2
  60. ID                                       : 4
  61. Format                                   : UTF-8
  62. Codec ID                                 : S_TEXT/UTF8
  63. Codec ID/Info                            : UTF-8 Plain Text
  64. Duration                                 : 1 h 26 min
  65. Bit rate                                 : 70 b/s
  66. Frame rate                               : 0.262 FPS
  67. Count of elements                        : 1364
  68. Stream size                              : 44.5 KiB (0%)
  69. Language                                 : English
  70. Default                                  : No
  71. Forced                                   : No

  72. Menu
  73. 00:00:00.000                             : en:Chapter 01
  74. 00:09:12.135                             : en:Chapter 02
  75. 00:25:25.734                             : en:Chapter 03
  76. 00:38:35.982                             : en:Chapter 04
  77. 00:54:05.537                             : en:Chapter 05
  78. 01:10:00.700                             : en:Chapter 06
  79. 01:26:29.022                             : en:Chapter 07
复制代码




                                       
                                       

                                       
                                       
                                       




Dig.2022.2160p.WEB-DL.x265.10bit.SDR.DD5.1-CM.torrent (16.95 KB, 下载次数: 0)
回复

使用道具 举报

懒得打字嘛,点击右侧快捷回复 【右侧内容,后台自定义】
您需要登录后才可以回帖 登录 | 立即注册

本版积分规则

Archiver|手机版|小黑屋| 中国高清网 |网站地图 

GMT+8, 2022-9-29 12:10 , Processed in 0.083724 second(s), 26 queries .

Powered by HDchina X3.4

Copyright 2017-2019©HDchina.All right reserved

返回顶部 联系我们