查看: 26|回复: 0

[2160p] 嘻哈梦想 On.The.Come.Up.2022.2160p.WEB-DL.DDP5.1.Atmos.DV.MKV.x265-NAISU 11.88GB

[复制链接]
蓝光币
44 枚
发表于 6 天前 | 显示全部楼层 |阅读模式
[img][/img]

◎标  题 嘻哈胡想
◎片  名 On the Come Up
◎年  代 2022
◎产  地 美国
◎类  别 剧情 / 笑剧 / 音乐
◎语  言 英语
◎上映日期 2022-09-09(多伦多电影节) / 2022-09-23(美国收集)
◎IMDb评分 6.4/10 (59人评价)
◎IMDb链接 https://www.imdb.com/title/tt9783730/
◎豆瓣链接 https://movie.douban.com/subject/34970178/
◎片  长 115分钟
◎导  演 桑娜·莱瑟 Sanaa Lathan
◎编  剧 卡伊·耶贡 Kay Oyegun
       安吉·托马斯 Angie Thomas
◎演  员 桑娜·莱瑟 Sanaa Lathan
       达明·乔伊·伦道夫 Da'Vine Joy Randolph
       Lil Yachty Lil Yachty
       马索·曼恩 Method Man
       迈克·艾普斯 Mike Epps
       尼贾·布雷尼亚 Nijah Brenea
       库利·卡尔文 Cuyle Carvin
       凯莉·科林斯·林茨 Kelly Collins Lintz
       施奎塔·詹姆斯 Shiquita James
       杰克琳·怀特 Jaclyn White
       蒂姆·洛斯 Tim Ross
       布鲁诺·罗斯 Bruno Rose
◎简  介

  As the daughter of an underground hip-hop legend who died right before he hit big, Bri's got massive shoes to fill. But it's hard as she is labeled a hoodlum at school, and faces financial crisis after her mom loses her job. So Bri pours her anger and frustration into her first song, which goes viral, for all the wrong reasons. Bri soon finds herself at the center of a controve...
  1. Video
  2. ID                                       : 1
  3. Format                                   : HEVC
  4. Format/Info                              : High Efficiency Video Coding
  5. Format profile                           : Main [email protected]@Main
  6. HDR format                               : Dolby Vision, Version 1.0, dvhe.05.06, BL+RPU
  7. Codec ID                                 : V_MPEGH/ISO/HEVC
  8. Duration                                 : 1 h 55 min
  9. Bit rate                                 : 13.6 Mb/s
  10. Width                                    : 3 840 pixels
  11. Height                                   : 2 160 pixels
  12. Display aspect ratio                     : 16:9
  13. Frame rate mode                          : Constant
  14. Frame rate                               : 23.976 (24000/1001/189150) FPS
  15. Color space                              : YUV
  16. Chroma subsampling                       : 4:2:0 (Type 0)
  17. Bit depth                                : 10 bits
  18. Bits/(Pixel*Frame)                       : 0.068
  19. Stream size                              : 11.0 GiB (93%)
  20. Default                                  : Yes
  21. Forced                                   : No
  22. Color range                              : Full
  23. Audio
  24. ID                                       : 2
  25. Format                                   : E-AC-3 JOC
  26. Format/Info                              : Enhanced AC-3 with Joint Object Coding
  27. Commercial name                          : Dolby Digital Plus with Dolby Atmos
  28. Codec ID                                 : A_EAC3
  29. Duration                                 : 1 h 55 min
  30. Bit rate mode                            : Constant
  31. Bit rate                                 : 768 kb/s
  32. Channel(s)                               : 6 channels
  33. Channel layout                           : L R C LFE Ls Rs
  34. Sampling rate                            : 48.0 kHz
  35. Frame rate                               : 31.250 FPS (1536 SPF)
  36. Compression mode                         : Lossy
  37. Stream size                              : 637 MiB (5%)
  38. Language                                 : English
  39. Service kind                             : Complete Main
  40. Default                                  : Yes
  41. Forced                                   : No
  42. Complexity index                         : 16
  43. Number of dynamic objects                : 15
  44. Bed channel count                        : 1 channel
  45. Bed channel configuration                : LFE
  46. Text
  47. ID                                       : 3
  48. Format                                   : UTF-8
  49. Codec ID                                 : S_TEXT/UTF8
  50. Codec ID/Info                            : UTF-8 Plain Text
  51. Title                                    : English [SDH]
  52. Language                                 : English
  53. Default                                  : No
  54. Forced                                   : No
复制代码




                                       
                                       

                                       
                                       
                                       




On.The.Come.Up.2022.2160p.WEB-DL.DDP5.1.Atmos.DV.MKV.x265-NAISU.torrent (15.49 KB, 下载次数: 0)
回复

使用道具 举报

懒得打字嘛,点击右侧快捷回复 【右侧内容,后台自定义】
您需要登录后才可以回帖 登录 | 立即注册

本版积分规则

Archiver|手机版|小黑屋| 中国高清网 |网站地图 

GMT+8, 2022-9-29 11:59 , Processed in 0.088468 second(s), 26 queries .

Powered by HDchina X3.4

Copyright 2017-2019©HDchina.All right reserved

返回顶部 联系我们