查看: 18|回复: 0

[2160p] 西德尼 Sidney.2022.2160p.ATVP.WEB-DL.DDP5.1.Atmos.DV.MP4.x265-DVSUX 18.83GB

[复制链接]
蓝光币
44 枚
发表于 6 天前 | 显示全部楼层 |阅读模式
[img][/img]

◎标  题 西德尼
◎译  名 西德尼·波蒂埃 / Sidney Poitier / El gran legado de Sidney Poitier
◎片  名 Sidney
◎年  代 2022
◎产  地 美国 / 加拿大
◎类  别 记载片 / 列传
◎语  言 英语
◎上映日期 2022-09-10(多伦多电影节) / 2022-09-23(美国收集)
◎IMDb评分 8.2/10 (14人评价)
◎IMDb链接 https://www.imdb.com/title/tt16977750/
◎豆瓣链接 https://movie.douban.com/subject/36060867/
◎片  长 106分钟
◎导  演 雷吉纳·哈德林 Reginald Hudlin
◎编  剧 杰西·詹姆斯·米勒 Jesse James Miller
◎演  员 西德尼·波蒂埃 Sidney Poitier
       丹泽尔·华盛顿 Denzel Washington
       罗伯特·雷德福 Robert Redford
       摩根·弗里曼 Morgan Freeman
       哈莉·贝瑞 Halle Berry
       芭芭拉·史翠珊 Barbra Streisand
       斯派克·李 Spike Lee
       小路易斯·格赛特 Louis Gossett Jr.
       西德尼·塔米娅·波蒂埃 Sydney Tamiia Poitier
       蓝尼·克罗维兹 Lenny Kravitz
       奥普拉·温弗瑞 Oprah Winfrey
       哈里·贝拉方特 Harry Belafonte
       昆西·琼斯 Quincy Jones
       乔安娜·辛库斯 Joanna Shimkus
       凯瑟琳·霍顿 Katharine Houghton
       Lulu Lulu
       Anika Poitier Anika Poitier
       尼尔森·乔治 Nelson George
◎简  介

  An inspirational story honoring the life and legacy of Hollywood legend, Sidney Poitier. Sidney premieres September 23 in theaters and on Apple TV+.                                       
                                    From producer Oprah Winfrey and directed by Reginald Hudlin, this revealing documentary honors the legendary Sidney Poitier and his legacy as an iconic actor, filmmaker and activist at the center of Hollywood and the Civil Rights M...
  1. Video
  2. ID                                       : 1
  3. Format                                   : HEVC
  4. Format/Info                              : High Efficiency Video Coding
  5. Format profile                           : Main [email protected]@High
  6. HDR format                               : Dolby Vision, Version 1.0, dvhe.05.06, BL+RPU
  7. Codec ID                                 : dvhe
  8. Codec ID/Info                            : High Efficiency Video Coding with Dolby Vision
  9. Duration                                 : 1 h 51 min
  10. Bit rate                                 : 23.4 Mb/s
  11. Width                                    : 3 840 pixels
  12. Height                                   : 2 160 pixels
  13. Display aspect ratio                     : 16:9
  14. Frame rate mode                          : Constant
  15. Frame rate                               : 23.976 (24000/1001/189150) FPS
  16. Color space                              : YUV
  17. Chroma subsampling                       : 4:2:0
  18. Bit depth                                : 10 bits
  19. Bits/(Pixel*Frame)                       : 0.118
  20. Stream size                              : 18.2 GiB (97%)
  21. Default                                  : Yes
  22. Alternate group                          : 1
  23. Encoded date                             : UTC 2022-09-23 03:30:25
  24. Tagged date                              : UTC 2022-09-23 03:32:45
  25. Codec configuration box                  : hvcC+dvcC
  26. Audio
  27. ID                                       : 2
  28. Format                                   : E-AC-3 JOC
  29. Format/Info                              : Enhanced AC-3 with Joint Object Coding
  30. Commercial name                          : Dolby Digital Plus with Dolby Atmos
  31. Codec ID                                 : ec-3
  32. Duration                                 : 1 h 51 min
  33. Bit rate mode                            : Constant
  34. Bit rate                                 : 768 kb/s
  35. Maximum bit rate                         : 811 kb/s
  36. Channel(s)                               : 6 channels
  37. Channel layout                           : L R C LFE Ls Rs
  38. Sampling rate                            : 48.0 kHz
  39. Frame rate                               : 31.250 FPS (1536 SPF)
  40. Compression mode                         : Lossy
  41. Stream size                              : 613 MiB (3%)
  42. Title                                    : English
  43. Language                                 : English
  44. Service kind                             : Complete Main
  45. Default                                  : Yes
  46. Alternate group                          : 1
  47. Tagged date                              : UTC 2022-09-23 03:32:45
  48. Complexity index                         : Not present / 16
  49. Number of dynamic objects                : 15
  50. Bed channel count                        : 1 channel
  51. Bed channel configuration                : LFE
  52. Text #1
  53. ID                                       : 3
  54. Format                                   : Timed Text
  55. Codec ID                                 : tx3g
  56. Duration                                 : 1 h 45 min
  57. Bit rate mode                            : Variable
  58. Bit rate                                 : 120 b/s
  59. Frame rate                               : 0.620 FPS
  60. Stream size                              : 93.3 KiB (0%)
  61. Title                                    : English
  62. Language                                 : English
  63. Forced                                   : No
  64. Encoded date                             : UTC 2022-09-23 03:32:37
  65. Tagged date                              : UTC 2022-09-23 03:32:45
  66. Text #2
  67. ID                                       : 4
  68. Format                                   : Timed Text
  69. Codec ID                                 : tx3g
  70. Duration                                 : 1 h 45 min
  71. Bit rate mode                            : Variable
  72. Bit rate                                 : 113 b/s
  73. Frame rate                               : 0.621 FPS
  74. Stream size                              : 87.6 KiB (0%)
  75. Title                                    : English
  76. Language                                 : English
  77. Forced                                   : No
  78. Encoded date                             : UTC 2022-09-23 03:32:37
  79. Tagged date                              : UTC 2022-09-23 03:32:45
  80. Text #3
  81. ID                                       : 5
  82. Format                                   : Timed Text
  83. Codec ID                                 : tx3g
  84. Duration                                 : 1 h 45 min
  85. Bit rate mode                            : Variable
  86. Bit rate                                 : 106 b/s
  87. Frame rate                               : 0.595 FPS
  88. Stream size                              : 82.5 KiB (0%)
  89. Title                                    : English
  90. Language                                 : English
  91. Forced                                   : No
  92. Encoded date                             : UTC 2022-09-23 03:32:37
  93. Tagged date                              : UTC 2022-09-23 03:32:45
  94. Text #4
  95. ID                                       : 6
  96. Format                                   : Timed Text
  97. Codec ID                                 : tx3g
  98. Duration                                 : 1 h 51 min
  99. Bit rate mode                            : Variable
  100. Bit rate                                 : 139 b/s
  101. Frame rate                               : 0.607 FPS
  102. Stream size                              : 114 KiB (0%)
  103. Title                                    : Arabic
  104. Language                                 : Arabic
  105. Forced                                   : No
  106. Encoded date                             : UTC 2022-09-23 03:32:38
  107. Tagged date                              : UTC 2022-09-23 03:32:45
  108. Text #5
  109. ID                                       : 7
  110. Format                                   : Timed Text
  111. Codec ID                                 : tx3g
  112. Duration                                 : 1 h 51 min
  113. Bit rate mode                            : Variable
  114. Bit rate                                 : 153 b/s
  115. Frame rate                               : 0.541 FPS
  116. Stream size                              : 125 KiB (0%)
  117. Title                                    : Bulgarian
  118. Language                                 : Bulgarian
  119. Forced                                   : No
  120. Encoded date                             : UTC 2022-09-23 03:32:38
  121. Tagged date                              : UTC 2022-09-23 03:32:45
  122. Text #6
  123. ID                                       : 8
  124. Format                                   : Timed Text
  125. Codec ID                                 : tx3g
  126. Duration                                 : 1 h 51 min
  127. Bit rate mode                            : Variable
  128. Bit rate                                 : 89 b/s
  129. Frame rate                               : 0.610 FPS
  130. Stream size                              : 72.3 KiB (0%)
  131. Title                                    : Chinese-Cantonese
  132. Language                                 : Chinese
  133. Forced                                   : No
  134. Encoded date                             : UTC 2022-09-23 03:32:39
  135. Tagged date                              : UTC 2022-09-23 03:32:45
  136. Text #7
  137. ID                                       : 9
  138. Format                                   : Timed Text
  139. Codec ID                                 : tx3g
  140. Duration                                 : 1 h 51 min
  141. Bit rate mode                            : Variable
  142. Bit rate                                 : 92 b/s
  143. Frame rate                               : 0.610 FPS
  144. Stream size                              : 74.9 KiB (0%)
  145. Title                                    : Chinese-Simplified
  146. Language                                 : Chinese
  147. Forced                                   : No
  148. Encoded date                             : UTC 2022-09-23 03:32:41
  149. Tagged date                              : UTC 2022-09-23 03:32:45
  150. Text #8
  151. ID                                       : 10
  152. Format                                   : Timed Text
  153. Codec ID                                 : tx3g
  154. Duration                                 : 1 h 51 min
  155. Bit rate mode                            : Variable
  156. Bit rate                                 : 91 b/s
  157. Frame rate                               : 0.610 FPS
  158. Stream size                              : 74.7 KiB (0%)
  159. Title                                    : Chinese-Traditional
  160. Language                                 : Chinese
  161. Forced                                   : No
  162. Encoded date                             : UTC 2022-09-23 03:32:42
  163. Tagged date                              : UTC 2022-09-23 03:32:45
  164. Text #9
  165. ID                                       : 11
  166. Format                                   : Timed Text
  167. Codec ID                                 : tx3g
  168. Duration                                 : 1 h 45 min
  169. Bit rate mode                            : Variable
  170. Bit rate                                 : 97 b/s
  171. Frame rate                               : 0.557 FPS
  172. Stream size                              : 75.2 KiB (0%)
  173. Title                                    : Czech
  174. Language                                 : Czech
  175. Forced                                   : No
  176. Encoded date                             : UTC 2022-09-23 03:32:42
  177. Tagged date                              : UTC 2022-09-23 03:32:45
  178. Text #10
  179. ID                                       : 12
  180. Format                                   : Timed Text
  181. Codec ID                                 : tx3g
  182. Duration                                 : 1 h 51 min
  183. Bit rate mode                            : Variable
  184. Bit rate                                 : 87 b/s
  185. Frame rate                               : 0.433 FPS
  186. Stream size                              : 70.8 KiB (0%)
  187. Title                                    : Danish
  188. Language                                 : Danish
  189. Forced                                   : No
  190. Encoded date                             : UTC 2022-09-23 03:32:42
  191. Tagged date                              : UTC 2022-09-23 03:32:45
  192. Text #11
  193. ID                                       : 13
  194. Format                                   : Timed Text
  195. Codec ID                                 : tx3g
  196. Duration                                 : 1 h 51 min
  197. Bit rate mode                            : Variable
  198. Bit rate                                 : 84 b/s
  199. Frame rate                               : 0.412 FPS
  200. Stream size                              : 68.3 KiB (0%)
  201. Title                                    : Dutch
  202. Language                                 : Dutch
  203. Forced                                   : No
  204. Encoded date                             : UTC 2022-09-23 03:32:42
  205. Tagged date                              : UTC 2022-09-23 03:32:45
  206. Text #12
  207. ID                                       : 14
  208. Format                                   : Timed Text
  209. Codec ID                                 : tx3g
  210. Duration                                 : 1 h 51 min
  211. Bit rate mode                            : Variable
  212. Bit rate                                 : 96 b/s
  213. Frame rate                               : 0.561 FPS
  214. Stream size                              : 78.0 KiB (0%)
  215. Title                                    : Estonian
  216. Language                                 : Estonian
  217. Forced                                   : No
  218. Encoded date                             : UTC 2022-09-23 03:32:42
  219. Tagged date                              : UTC 2022-09-23 03:32:45
  220. Text #13
  221. ID                                       : 15
  222. Format                                   : Timed Text
  223. Codec ID                                 : tx3g
  224. Duration                                 : 1 h 51 min
  225. Bit rate mode                            : Variable
  226. Bit rate                                 : 90 b/s
  227. Frame rate                               : 0.564 FPS
  228. Stream size                              : 73.9 KiB (0%)
  229. Title                                    : Finnish
  230. Language                                 : Finnish
  231. Forced                                   : No
  232. Encoded date                             : UTC 2022-09-23 03:32:43
  233. Tagged date                              : UTC 2022-09-23 03:32:45
  234. Text #14
  235. ID                                       : 16
  236. Format                                   : Timed Text
  237. Codec ID                                 : tx3g
  238. Duration                                 : 1 h 51 min
  239. Bit rate mode                            : Variable
  240. Bit rate                                 : 90 b/s
  241. Frame rate                               : 0.587 FPS
  242. Stream size                              : 73.6 KiB (0%)
  243. Title                                    : French
  244. Language                                 : French
  245. Forced                                   : No
  246. Encoded date                             : UTC 2022-09-23 03:32:43
  247. Tagged date                              : UTC 2022-09-23 03:32:45
  248. Text #15
  249. ID                                       : 17
  250. Format                                   : Timed Text
  251. Codec ID                                 : tx3g
  252. Duration                                 : 1 h 51 min
  253. Bit rate mode                            : Variable
  254. Bit rate                                 : 90 b/s
  255. Frame rate                               : 0.587 FPS
  256. Stream size                              : 73.5 KiB (0%)
  257. Title                                    : French
  258. Language                                 : French
  259. Forced                                   : No
  260. Encoded date                             : UTC 2022-09-23 03:32:43
  261. Tagged date                              : UTC 2022-09-23 03:32:45
  262. Text #16
  263. ID                                       : 18
  264. Format                                   : Timed Text
  265. Codec ID                                 : tx3g
  266. Duration                                 : 1 h 51 min
  267. Bit rate mode                            : Variable
  268. Bit rate                                 : 97 b/s
  269. Frame rate                               : 0.499 FPS
  270. Stream size                              : 78.8 KiB (0%)
  271. Title                                    : German
  272. Language                                 : German
  273. Forced                                   : No
  274. Encoded date                             : UTC 2022-09-23 03:32:43
  275. Tagged date                              : UTC 2022-09-23 03:32:45
  276. Text #17
  277. ID                                       : 19
  278. Format                                   : Timed Text
  279. Codec ID                                 : tx3g
  280. Duration                                 : 1 h 51 min
  281. Bit rate mode                            : Variable
  282. Bit rate                                 : 165 b/s
  283. Frame rate                               : 0.566 FPS
  284. Stream size                              : 135 KiB (0%)
  285. Title                                    : Greek
  286. Language                                 : Greek
  287. Forced                                   : No
  288. Encoded date                             : UTC 2022-09-23 03:32:43
  289. Tagged date                              : UTC 2022-09-23 03:32:45
  290. Text #18
  291. ID                                       : 20
  292. Format                                   : Timed Text
  293. Codec ID                                 : tx3g
  294. Duration                                 : 1 h 51 min
  295. Bit rate mode                            : Variable
  296. Bit rate                                 : 133 b/s
  297. Frame rate                               : 0.607 FPS
  298. Stream size                              : 109 KiB (0%)
  299. Title                                    : Hebrew
  300. Language                                 : Hebrew
  301. Forced                                   : No
  302. Encoded date                             : UTC 2022-09-23 03:32:43
  303. Tagged date                              : UTC 2022-09-23 03:32:45
  304. Text #19
  305. ID                                       : 21
  306. Format                                   : Timed Text
  307. Codec ID                                 : tx3g
  308. Duration                                 : 1 h 51 min
  309. Bit rate mode                            : Variable
  310. Bit rate                                 : 261 b/s
  311. Frame rate                               : 0.608 FPS
  312. Stream size                              : 213 KiB (0%)
  313. Title                                    : Hindi
  314. Language                                 : Hindi
  315. Forced                                   : No
  316. Encoded date                             : UTC 2022-09-23 03:32:43
  317. Tagged date                              : UTC 2022-09-23 03:32:45
  318. Text #20
  319. ID                                       : 22
  320. Format                                   : Timed Text
  321. Codec ID                                 : tx3g
  322. Duration                                 : 1 h 51 min
  323. Bit rate mode                            : Variable
  324. Bit rate                                 : 107 b/s
  325. Frame rate                               : 0.589 FPS
  326. Stream size                              : 87.3 KiB (0%)
  327. Title                                    : Hungarian
  328. Language                                 : Hungarian
  329. Forced                                   : No
  330. Encoded date                             : UTC 2022-09-23 03:32:43
  331. Tagged date                              : UTC 2022-09-23 03:32:45
  332. Text #21
  333. ID                                       : 23
  334. Format                                   : Timed Text
  335. Codec ID                                 : tx3g
  336. Duration                                 : 1 h 51 min
  337. Bit rate mode                            : Variable
  338. Bit rate                                 : 107 b/s
  339. Frame rate                               : 0.581 FPS
  340. Stream size                              : 87.7 KiB (0%)
  341. Title                                    : Indonesian
  342. Language                                 : Indonesian
  343. Forced                                   : No
  344. Encoded date                             : UTC 2022-09-23 03:32:43
  345. Tagged date                              : UTC 2022-09-23 03:32:45
  346. Text #22
  347. ID                                       : 24
  348. Format                                   : Timed Text
  349. Codec ID                                 : tx3g
  350. Duration                                 : 1 h 51 min
  351. Bit rate mode                            : Variable
  352. Bit rate                                 : 98 b/s
  353. Frame rate                               : 0.537 FPS
  354. Stream size                              : 79.9 KiB (0%)
  355. Title                                    : Italian
  356. Language                                 : Italian
  357. Forced                                   : No
  358. Encoded date                             : UTC 2022-09-23 03:32:43
  359. Tagged date                              : UTC 2022-09-23 03:32:45
  360. Text #23
  361. ID                                       : 25
  362. Format                                   : Timed Text
  363. Codec ID                                 : tx3g
  364. Duration                                 : 1 h 51 min
  365. Bit rate mode                            : Variable
  366. Bit rate                                 : 91 b/s
  367. Frame rate                               : 0.516 FPS
  368. Stream size                              : 74.3 KiB (0%)
  369. Title                                    : Japanese
  370. Language                                 : Japanese
  371. Forced                                   : No
  372. Encoded date                             : UTC 2022-09-23 03:32:43
  373. Tagged date                              : UTC 2022-09-23 03:32:45
  374. Text #24
  375. ID                                       : 26
  376. Format                                   : Timed Text
  377. Codec ID                                 : tx3g
  378. Duration                                 : 1 h 51 min
  379. Bit rate mode                            : Variable
  380. Bit rate                                 : 114 b/s
  381. Frame rate                               : 0.610 FPS
  382. Stream size                              : 92.9 KiB (0%)
  383. Title                                    : Korean
  384. Language                                 : Korean
  385. Forced                                   : No
  386. Encoded date                             : UTC 2022-09-23 03:32:44
  387. Tagged date                              : UTC 2022-09-23 03:32:45
  388. Text #25
  389. ID                                       : 27
  390. Format                                   : Timed Text
  391. Codec ID                                 : tx3g
  392. Duration                                 : 1 h 51 min
  393. Bit rate mode                            : Variable
  394. Bit rate                                 : 104 b/s
  395. Frame rate                               : 0.568 FPS
  396. Stream size                              : 85.3 KiB (0%)
  397. Title                                    : Latvian
  398. Language                                 : Latvian
  399. Forced                                   : No
  400. Encoded date                             : UTC 2022-09-23 03:32:44
  401. Tagged date                              : UTC 2022-09-23 03:32:45
  402. Text #26
  403. ID                                       : 28
  404. Format                                   : Timed Text
  405. Codec ID                                 : tx3g
  406. Duration                                 : 1 h 51 min
  407. Bit rate mode                            : Variable
  408. Bit rate                                 : 105 b/s
  409. Frame rate                               : 0.609 FPS
  410. Stream size                              : 85.7 KiB (0%)
  411. Title                                    : Lithuanian
  412. Language                                 : Lithuanian
  413. Forced                                   : No
  414. Encoded date                             : UTC 2022-09-23 03:32:44
  415. Tagged date                              : UTC 2022-09-23 03:32:45
  416. Text #27
  417. ID                                       : 29
  418. Format                                   : Timed Text
  419. Codec ID                                 : tx3g
  420. Duration                                 : 1 h 51 min
  421. Bit rate mode                            : Variable
  422. Bit rate                                 : 97 b/s
  423. Frame rate                               : 0.583 FPS
  424. Stream size                              : 79.3 KiB (0%)
  425. Title                                    : Malay
  426. Language                                 : Malay
  427. Forced                                   : No
  428. Encoded date                             : UTC 2022-09-23 03:32:44
  429. Tagged date                              : UTC 2022-09-23 03:32:45
  430. Text #28
  431. ID                                       : 30
  432. Format                                   : Timed Text
  433. Codec ID                                 : tx3g
  434. Duration                                 : 1 h 51 min
  435. Bit rate mode                            : Variable
  436. Bit rate                                 : 90 b/s
  437. Frame rate                               : 0.440 FPS
  438. Stream size                              : 73.7 KiB (0%)
  439. Title                                    : Norwegian
  440. Language                                 : Norwegian
  441. Forced                                   : No
  442. Encoded date                             : UTC 2022-09-23 03:32:44
  443. Tagged date                              : UTC 2022-09-23 03:32:45
  444. Text #29
  445. ID                                       : 31
  446. Format                                   : Timed Text
  447. Codec ID                                 : tx3g
  448. Duration                                 : 1 h 51 min
  449. Bit rate mode                            : Variable
  450. Bit rate                                 : 93 b/s
  451. Frame rate                               : 0.538 FPS
  452. Stream size                              : 76.2 KiB (0%)
  453. Title                                    : Polish
  454. Language                                 : Polish
  455. Forced                                   : No
  456. Encoded date                             : UTC 2022-09-23 03:32:44
  457. Tagged date                              : UTC 2022-09-23 03:32:45
  458. Text #30
  459. ID                                       : 32
  460. Format                                   : Timed Text
  461. Codec ID                                 : tx3g
  462. Duration                                 : 1 h 51 min
  463. Bit rate mode                            : Variable
  464. Bit rate                                 : 105 b/s
  465. Frame rate                               : 0.586 FPS
  466. Stream size                              : 86.0 KiB (0%)
  467. Title                                    : Portuguese
  468. Language                                 : Portuguese
  469. Forced                                   : No
  470. Encoded date                             : UTC 2022-09-23 03:32:44
  471. Tagged date                              : UTC 2022-09-23 03:32:45
  472. Text #31
  473. ID                                       : 33
  474. Format                                   : Timed Text
  475. Codec ID                                 : tx3g
  476. Duration                                 : 1 h 51 min
  477. Bit rate mode                            : Variable
  478. Bit rate                                 : 93 b/s
  479. Frame rate                               : 0.537 FPS
  480. Stream size                              : 76.1 KiB (0%)
  481. Title                                    : Portuguese
  482. Language                                 : Portuguese
  483. Forced                                   : No
  484. Encoded date                             : UTC 2022-09-23 03:32:44
  485. Tagged date                              : UTC 2022-09-23 03:32:45
  486. Text #32
  487. ID                                       : 34
  488. Format                                   : Timed Text
  489. Codec ID                                 : tx3g
  490. Duration                                 : 1 h 51 min
  491. Bit rate mode                            : Variable
  492. Bit rate                                 : 165 b/s
  493. Frame rate                               : 0.607 FPS
  494. Stream size                              : 135 KiB (0%)
  495. Title                                    : Russian
  496. Language                                 : Russian
  497. Forced                                   : No
  498. Encoded date                             : UTC 2022-09-23 03:32:44
  499. Tagged date                              : UTC 2022-09-23 03:32:45
  500. Text #33
  501. ID                                       : 35
  502. Format                                   : Timed Text
  503. Codec ID                                 : tx3g
  504. Duration                                 : 1 h 51 min
  505. Bit rate mode                            : Variable
  506. Bit rate                                 : 91 b/s
  507. Frame rate                               : 0.581 FPS
  508. Stream size                              : 74.3 KiB (0%)
  509. Title                                    : Slovak
  510. Language                                 : Slovak
  511. Forced                                   : No
  512. Encoded date                             : UTC 2022-09-23 03:32:44
  513. Tagged date                              : UTC 2022-09-23 03:32:45
  514. Text #34
  515. ID                                       : 36
  516. Format                                   : Timed Text
  517. Codec ID                                 : tx3g
  518. Duration                                 : 1 h 51 min
  519. Bit rate mode                            : Variable
  520. Bit rate                                 : 84 b/s
  521. Frame rate                               : 0.549 FPS
  522. Stream size                              : 68.7 KiB (0%)
  523. Title                                    : Slovenian
  524. Language                                 : Slovenian
  525. Forced                                   : No
  526. Encoded date                             : UTC 2022-09-23 03:32:44
  527. Tagged date                              : UTC 2022-09-23 03:32:45
  528. Text #35
  529. ID                                       : 37
  530. Format                                   : Timed Text
  531. Codec ID                                 : tx3g
  532. Duration                                 : 1 h 51 min
  533. Bit rate mode                            : Variable
  534. Bit rate                                 : 99 b/s
  535. Frame rate                               : 0.534 FPS
  536. Stream size                              : 81.2 KiB (0%)
  537. Title                                    : Spanish-EU
  538. Language                                 : Spanish
  539. Forced                                   : No
  540. Encoded date                             : UTC 2022-09-23 03:32:44
  541. Tagged date                              : UTC 2022-09-23 03:32:45
  542. Text #36
  543. ID                                       : 38
  544. Format                                   : Timed Text
  545. Codec ID                                 : tx3g
  546. Duration                                 : 1 h 51 min
  547. Bit rate mode                            : Variable
  548. Bit rate                                 : 91 b/s
  549. Frame rate                               : 0.580 FPS
  550. Stream size                              : 74.6 KiB (0%)
  551. Title                                    : Spanish-EU
  552. Language                                 : Spanish
  553. Forced                                   : No
  554. Encoded date                             : UTC 2022-09-23 03:32:45
  555. Tagged date                              : UTC 2022-09-23 03:32:45
  556. Text #37
  557. ID                                       : 39
  558. Format                                   : Timed Text
  559. Codec ID                                 : tx3g
  560. Duration                                 : 1 h 51 min
  561. Bit rate mode                            : Variable
  562. Bit rate                                 : 91 b/s
  563. Frame rate                               : 0.495 FPS
  564. Stream size                              : 74.4 KiB (0%)
  565. Title                                    : Swedish
  566. Language                                 : Swedish
  567. Forced                                   : No
  568. Encoded date                             : UTC 2022-09-23 03:32:45
  569. Tagged date                              : UTC 2022-09-23 03:32:45
  570. Text #38
  571. ID                                       : 40
  572. Format                                   : Timed Text
  573. Codec ID                                 : tx3g
  574. Duration                                 : 1 h 51 min
  575. Bit rate mode                            : Variable
  576. Bit rate                                 : 298 b/s
  577. Frame rate                               : 0.607 FPS
  578. Stream size                              : 244 KiB (0%)
  579. Title                                    : Tamil
  580. Language                                 : Tamil
  581. Forced                                   : No
  582. Encoded date                             : UTC 2022-09-23 03:32:45
  583. Tagged date                              : UTC 2022-09-23 03:32:45
  584. Text #39
  585. ID                                       : 41
  586. Format                                   : Timed Text
  587. Codec ID                                 : tx3g
  588. Duration                                 : 1 h 51 min
  589. Bit rate mode                            : Variable
  590. Bit rate                                 : 283 b/s
  591. Frame rate                               : 0.607 FPS
  592. Stream size                              : 231 KiB (0%)
  593. Title                                    : Telugu
  594. Language                                 : Telugu
  595. Forced                                   : No
  596. Encoded date                             : UTC 2022-09-23 03:32:45
  597. Tagged date                              : UTC 2022-09-23 03:32:45
  598. Text #40
  599. ID                                       : 42
  600. Format                                   : Timed Text
  601. Codec ID                                 : tx3g
  602. Duration                                 : 1 h 51 min
  603. Bit rate mode                            : Variable
  604. Bit rate                                 : 254 b/s
  605. Frame rate                               : 0.605 FPS
  606. Stream size                              : 208 KiB (0%)
  607. Title                                    : Thai
  608. Language                                 : Thai
  609. Forced                                   : No
  610. Encoded date                             : UTC 2022-09-23 03:32:45
  611. Tagged date                              : UTC 2022-09-23 03:32:45
  612. Text #41
  613. ID                                       : 43
  614. Format                                   : Timed Text
  615. Codec ID                                 : tx3g
  616. Duration                                 : 1 h 51 min
  617. Bit rate mode                            : Variable
  618. Bit rate                                 : 98 b/s
  619. Frame rate                               : 0.585 FPS
  620. Stream size                              : 80.0 KiB (0%)
  621. Title                                    : Turkish
  622. Language                                 : Turkish
  623. Forced                                   : No
  624. Encoded date                             : UTC 2022-09-23 03:32:45
  625. Tagged date                              : UTC 2022-09-23 03:32:45
  626. Text #42
  627. ID                                       : 44
  628. Format                                   : Timed Text
  629. Codec ID                                 : tx3g
  630. Duration                                 : 1 h 51 min
  631. Bit rate mode                            : Variable
  632. Bit rate                                 : 146 b/s
  633. Frame rate                               : 0.604 FPS
  634. Stream size                              : 120 KiB (0%)
  635. Title                                    : Ukrainian
  636. Language                                 : Ukrainian
  637. Forced                                   : No
  638. Encoded date                             : UTC 2022-09-23 03:32:45
  639. Tagged date                              : UTC 2022-09-23 03:32:45
  640. Text #43
  641. ID                                       : 45
  642. Format                                   : Timed Text
  643. Codec ID                                 : tx3g
  644. Duration                                 : 1 h 51 min
  645. Bit rate mode                            : Variable
  646. Bit rate                                 : 124 b/s
  647. Frame rate                               : 0.584 FPS
  648. Stream size                              : 101 KiB (0%)
  649. Title                                    : Vietnamese
  650. Language                                 : Vietnamese
  651. Forced                                   : No
  652. Encoded date                             : UTC 2022-09-23 03:32:45
  653. Tagged date                              : UTC 2022-09-23 03:32:45
复制代码




                                       
                                       

                                       
                                       
                                       




Sidney.2022.2160p.ATVP.WEB-DL.DDP5.1.Atmos.DV.MP4.x265-DVSUX.torrent (24.19 KB, 下载次数: 0)
回复

使用道具 举报

懒得打字嘛,点击右侧快捷回复 【右侧内容,后台自定义】
您需要登录后才可以回帖 登录 | 立即注册

本版积分规则

Archiver|手机版|小黑屋| 中国高清网 |网站地图 

GMT+8, 2022-9-29 13:50 , Processed in 0.152381 second(s), 26 queries .

Powered by HDchina X3.4

Copyright 2017-2019©HDchina.All right reserved

返回顶部 联系我们