查看: 25|回复: 0

[其他] 后街男孩:二十年全记录 Backstreet.Boys.Show.Em.What.Youre.Made.Of.2015.1080p.AMZN.WEBRip.DDP5.1.x264-alfaHD 7.23GB

[复制链接]
蓝光币
44 枚
发表于 6 天前 | 显示全部楼层 |阅读模式
[img][/img]

◎标  题 后街男孩:二十年全记录
◎译  名 后街男孩全记录 / 后街男孩:告诉他们你是什么做的
◎片  名 Backstreet Boys: Show 'Em What You're Made Of
◎年  代 2015
◎产  地 英国 / 美国
◎类  别 记载片
◎语  言 英语
◎上映日期 2015-01-30(美国)
◎IMDb评分 7.5/10 (1543人评价)
◎IMDb链接 https://www.imdb.com/title/tt2712154/
◎豆瓣评分 9.2/10 (390人评价)
◎豆瓣链接 https://movie.douban.com/subject/25978132/
◎片  长 101分钟
◎导  演 史蒂芬·卡嘉克 Stephen Kijak
◎演  员 尼克·卡特 Nick Carter
       凯文·斯科特·理查德森 Kevin Scott Richardson
       霍伊·多罗夫 Howie Dorough
       亚历山大·詹姆斯·迈克林 A.J. McLean
       布莱恩·利特尔 Brian Littrell
◎简  介

  A behind-the-scenes look at the popular boy band, Backstreet Boys.
  1. Video
  2. ID                                       : 1
  3. Format                                   : AVC
  4. Format/Info                              : Advanced Video Codec
  5. Format profile                           : [email protected]
  6. Format settings                          : CABAC / 4 Ref Frames
  7. Format settings, CABAC                   : Yes
  8. Format settings, Reference frames        : 4 frames
  9. Codec ID                                 : V_MPEG4/ISO/AVC
  10. Duration                                 : 1 h 45 min
  11. Bit rate mode                            : Constant
  12. Bit rate                                 : 9 194 kb/s
  13. Nominal bit rate                         : 10 000 kb/s
  14. Width                                    : 1 920 pixels
  15. Height                                   : 1 080 pixels
  16. Display aspect ratio                     : 16:9
  17. Frame rate mode                          : Constant
  18. Frame rate                               : 25.000 FPS
  19. Color space                              : YUV
  20. Chroma subsampling                       : 4:2:0
  21. Bit depth                                : 8 bits
  22. Scan type                                : Progressive
  23. Bits/(Pixel*Frame)                       : 0.177
  24. Stream size                              : 6.76 GiB (93%)
  25. Default                                  : Yes
  26. Forced                                   : No
  27. Color range                              : Limited
  28. Color primaries                          : BT.709
  29. Transfer characteristics                 : BT.709
  30. Matrix coefficients                      : BT.709
  31. Audio
  32. ID                                       : 2
  33. Format                                   : E-AC-3
  34. Format/Info                              : Enhanced AC-3
  35. Commercial name                          : Dolby Digital Plus
  36. Codec ID                                 : A_EAC3
  37. Duration                                 : 1 h 45 min
  38. Bit rate mode                            : Constant
  39. Bit rate                                 : 640 kb/s
  40. Channel(s)                               : 6 channels
  41. Channel layout                           : L R C LFE Ls Rs
  42. Sampling rate                            : 48.0 kHz
  43. Frame rate                               : 31.250 FPS (1536 SPF)
  44. Compression mode                         : Lossy
  45. Stream size                              : 482 MiB (7%)
  46. Language                                 : English
  47. Service kind                             : Complete Main
  48. Default                                  : Yes
  49. Forced                                   : No
  50. Text #1
  51. ID                                       : 3
  52. Format                                   : UTF-8
  53. Codec ID                                 : S_TEXT/UTF8
  54. Codec ID/Info                            : UTF-8 Plain Text
  55. Duration                                 : 1 h 44 min
  56. Bit rate                                 : 99 b/s
  57. Frame rate                               : 0.334 FPS
  58. Count of elements                        : 2096
  59. Stream size                              : 76.4 KiB (0%)
  60. Language                                 : English
  61. Default                                  : No
  62. Forced                                   : No
  63. Text #2
  64. ID                                       : 4
  65. Format                                   : UTF-8
  66. Codec ID                                 : S_TEXT/UTF8
  67. Codec ID/Info                            : UTF-8 Plain Text
  68. Duration                                 : 1 h 44 min
  69. Bit rate                                 : 102 b/s
  70. Frame rate                               : 0.339 FPS
  71. Count of elements                        : 2129
  72. Stream size                              : 78.4 KiB (0%)
  73. Title                                    : SDH
  74. Language                                 : English
  75. Default                                  : No
  76. Forced                                   : No
复制代码




                                       
                                       

                                       
                                       
                                       




后街男孩:二十年全记录 Backstreet.Boys.Show.Em.What.Youre.Made.Of.2015.1080p.AMZN.WEBRip.DDP5.1.x264-alfaHD 7.23GB

Backstreet.Boys.Show.Em.What.Youre.Made.Of.2015.1080p.AMZN.WEBRip.DDP5.1.x264-al.torrent

18.77 KB, 下载次数: 6

回复

使用道具 举报

懒得打字嘛,点击右侧快捷回复 【右侧内容,后台自定义】
您需要登录后才可以回帖 登录 | 立即注册

本版积分规则

Archiver|手机版|小黑屋| 中国高清网 |网站地图 

GMT+8, 2022-9-28 10:20 , Processed in 0.086118 second(s), 26 queries .

Powered by HDchina X3.4

Copyright 2017-2019©HDchina.All right reserved

返回顶部 联系我们