查看: 15|回复: 0

[喜剧片] 连环杀手之家 When.the.Screaming.Starts.2021.1080p.AMZN.WEBRip.DDP2.0.x264-NOGRP 5.46GB

[复制链接]
蓝光币
44 枚
发表于 6 天前 | 显示全部楼层 |阅读模式
[img][/img]

◎标  题 连环杀手之家
◎译  名 尖叫開麥拉(台)
◎片  名 When the Screaming Starts
◎年  代 2021
◎产  地 英国
◎类  别 笑剧 / 可骇
◎语  言 英语
◎上映日期 2021-08-28(Frightfest)
◎IMDb评分 5.7/10 (129人评价)
◎IMDb链接 https://www.imdb.com/title/tt11299422/
◎豆瓣链接 https://movie.douban.com/subject/35580123/
◎片  长 88分钟
◎演  员 亚森·阿图 Yasen Atour
       李·尼古拉斯·哈里斯 Lee Nicholas Harris
◎简  介

  演員出道的英國導演康諾博魯,首部長片《尖叫開麥拉》便笑翻眾影壇、好評如潮。電影以偽紀錄片手法開場,講述一位紀錄片導演遇上发愤成為連續殺人犯的男人,兩人一拍即合,更決心組織殺人集團,從面試嗜血同黨到進行合宿集訓,一場殺戮儀式即將展開,最爆笑的虐殺電影就要登場。影片精巧擷選並顛覆一切驚悚類型元素,更讓人捧腹大笑。對虐殺電影人設及橋段如數家珍,或熱愛《吸血鬼家庭屍篇》冷調诙谐的奇异發燒友們,千萬別錯過!
  1. Video
  2. ID                                       : 1
  3. Format                                   : AVC
  4. Format/Info                              : Advanced Video Codec
  5. Format profile                           : [email protected]
  6. Format settings                          : CABAC / 4 Ref Frames
  7. Format settings, CABAC                   : Yes
  8. Format settings, Reference frames        : 4 frames
  9. Codec ID                                 : V_MPEG4/ISO/AVC
  10. Duration                                 : 1 h 29 min
  11. Bit rate mode                            : Constant
  12. Bit rate                                 : 8 552 kb/s
  13. Nominal bit rate                         : 10 000 kb/s
  14. Width                                    : 1 920 pixels
  15. Height                                   : 1 080 pixels
  16. Display aspect ratio                     : 16:9
  17. Frame rate mode                          : Constant
  18. Frame rate                               : 23.976 (24000/1001/189150) FPS
  19. Color space                              : YUV
  20. Chroma subsampling                       : 4:2:0
  21. Bit depth                                : 8 bits
  22. Scan type                                : Progressive
  23. Bits/(Pixel*Frame)                       : 0.172
  24. Stream size                              : 5.32 GiB (97%)
  25. Default                                  : Yes
  26. Forced                                   : No
  27. Color range                              : Limited
  28. Color primaries                          : BT.709
  29. Transfer characteristics                 : BT.709
  30. Matrix coefficients                      : BT.709
  31. Audio
  32. ID                                       : 2
  33. Format                                   : E-AC-3
  34. Format/Info                              : Enhanced AC-3
  35. Commercial name                          : Dolby Digital Plus
  36. Codec ID                                 : A_EAC3
  37. Duration                                 : 1 h 29 min
  38. Bit rate mode                            : Constant
  39. Bit rate                                 : 224 kb/s
  40. Channel(s)                               : 2 channels
  41. Channel layout                           : L R
  42. Sampling rate                            : 48.0 kHz
  43. Frame rate                               : 31.250 FPS (1536 SPF)
  44. Compression mode                         : Lossy
  45. Stream size                              : 143 MiB (3%)
  46. Language                                 : English
  47. Service kind                             : Complete Main
  48. Default                                  : Yes
  49. Forced                                   : No
复制代码




                                       
                                       

                                       
                                       
                                       




When.the.Screaming.Starts.2021.1080p.AMZN.WEBRip.DDP2.0.x264-NOGRP.torrent (14.3 KB, 下载次数: 0)
回复

使用道具 举报

懒得打字嘛,点击右侧快捷回复 【右侧内容,后台自定义】
您需要登录后才可以回帖 登录 | 立即注册

本版积分规则

Archiver|手机版|小黑屋| 中国高清网 |网站地图 

GMT+8, 2022-9-28 12:27 , Processed in 0.088728 second(s), 26 queries .

Powered by HDchina X3.4

Copyright 2017-2019©HDchina.All right reserved

返回顶部 联系我们