查看: 17|回复: 0

[喜剧片] 蠢材闯关 The.Nitwits.1935.1080p.HMAX.WEBRip.DD2.0.x264-tijuco 4.92GB

[复制链接]
蓝光币
44 枚
发表于 6 天前 | 显示全部楼层 |阅读模式
[img][/img]

◎标  题 蠢材闯关
◎片  名 The Nitwits
◎年  代 1935
◎产  地 美国
◎类  别 笑剧
◎语  言 英语
◎上映日期 1935-06-07
◎IMDb评分 6/10 (384人评价)
◎IMDb链接 https://www.imdb.com/title/tt0026781/
◎豆瓣链接 https://movie.douban.com/subject/1302034/
◎片  长 81 分钟
◎导  演 乔治·史蒂文斯 George Stevens
◎编  剧 阿尔·博斯伯格 Al Boasberg
       斯图尔特·帕尔默 Stuart Palmer
       弗雷德·吉奥尔 Fred Guiol
       乔治·史蒂文斯 George Stevens
◎演  员 Bert Wheeler Bert Wheeler
       Robert Woolsey Robert Woolsey
       Fred Keating Fred Keating
       贝蒂·格拉布尔 Betty Grable
       Donald Kerr Donald Kerr
       吉尔·帕金斯 Gil Perkins
       Joey Ray Joey Ray
       Constantine Romanoff Constantine Romanoff
       艾弗琳·布伦特 Evelyn Brent
       Bob Reeves Bob Reeves
       Floyd Shackelford Floyd Shackelford
       阿瑟·特雷彻 Arthur Treacher
       唐纳德·海恩斯 Donald Haines
       帕特·韦斯特 Pat West
       查尔斯·C·威尔逊 Charles C. Wilson
       Lew Kelly Lew Kelly
       Ham Kinsey Ham Kinsey
       亚瑟·埃尔斯沃斯 Arthur Aylesworth
       Edward Peil Sr. Edward Peil Sr.
       威利·贝斯特 Willie Best
       Martin Cichy Martin Cichy
       迪克·柯蒂斯 Dick Curtis
       Edgar Dearing Edgar Dearing
       威廉·古尔德 William Gould
       Dick Gilbert Dick Gilbert
       Jack Grant Jack Grant
       黑尔·汉密尔顿 Hale Hamilton
       Frances Grant Frances Grant
       帕特·哈蒙 Pat Harmon
       Erik Rhodes Erik Rhodes
       Lee S. Marcus Lee S. Marcus
       罗伊·韦伯 Roy Webb
       爱德华·克龙耶格尔 Edward Cronjager
       John Lockert John Lockert
       范·内斯特·波格拉斯 Van Nest Polglase
       Bernard Newman Bernard Newman
       Mel Berns Mel Berns
       让·亚伯勒 Jean Yarbrough
       Doran Cox Doran Cox
  1. Video
  2. ID                                       : 1
  3. Format                                   : AVC
  4. Format/Info                              : Advanced Video Codec
  5. Format profile                           : [email protected]
  6. Format settings                          : CABAC / 4 Ref Frames
  7. Format settings, CABAC                   : Yes
  8. Format settings, Reference frames        : 4 frames
  9. Codec ID                                 : V_MPEG4/ISO/AVC
  10. Duration                                 : 1 h 21 min
  11. Bit rate mode                            : Variable
  12. Bit rate                                 : 8 250 kb/s
  13. Maximum bit rate                         : 12.4 Mb/s
  14. Width                                    : 1 920 pixels
  15. Height                                   : 1 080 pixels
  16. Display aspect ratio                     : 16:9
  17. Frame rate mode                          : Constant
  18. Frame rate                               : 23.976 (24000/1001/189150) FPS
  19. Color space                              : YUV
  20. Chroma subsampling                       : 4:2:0
  21. Bit depth                                : 8 bits
  22. Scan type                                : Progressive
  23. Bits/(Pixel*Frame)                       : 0.166
  24. Stream size                              : 4.70 GiB (96%)
  25. Writing library                          : x264 core 157 r2965 861cec4
  26. Encoding settings                        : cabac=1 / ref=4 / deblock=1:0:0 / analyse=0x3:0x113 / me=hex / subme=7 / psy=1 / psy_rd=1.00:0.00 / mixed_ref=1 / me_range=16 / chroma_me=1 / trellis=1 / 8x8dct=1 / cqm=0 / deadzone=21,11 / fast_pskip=1 / chroma_qp_offset=-2 / threads=34 / lookahead_threads=5 / sliced_threads=0 / nr=0 / decimate=1 / interlaced=0 / bluray_compat=0 / constrained_intra=0 / bframes=3 / b_pyramid=2 / b_adapt=1 / b_bias=0 / direct=1 / weightb=1 / open_gop=0 / weightp=2 / keyint=96 / keyint_min=96 / scenecut=40 / intra_refresh=0 / rc_lookahead=40 / rc=2pass / mbtree=1 / bitrate=8250 / ratetol=1.0 / qcomp=0.60 / qpmin=0 / qpmax=69 / qpstep=4 / cplxblur=20.0 / qblur=0.5 / vbv_maxrate=12375 / vbv_bufsize=6187 / nal_hrd=vbr / filler=0 / ip_ratio=1.40 / aq=1:1.00
  27. Default                                  : Yes
  28. Forced                                   : No
  29. Color range                              : Limited
  30. Color primaries                          : BT.709
  31. Transfer characteristics                 : BT.709
  32. Matrix coefficients                      : BT.709
  33. Audio
  34. ID                                       : 2
  35. Format                                   : AC-3
  36. Format/Info                              : Audio Coding 3
  37. Commercial name                          : Dolby Digital
  38. Codec ID                                 : A_AC3
  39. Duration                                 : 1 h 21 min
  40. Bit rate mode                            : Constant
  41. Bit rate                                 : 384 kb/s
  42. Channel(s)                               : 2 channels
  43. Channel layout                           : L R
  44. Sampling rate                            : 48.0 kHz
  45. Frame rate                               : 31.250 FPS (1536 SPF)
  46. Compression mode                         : Lossy
  47. Stream size                              : 224 MiB (4%)
  48. Title                                    : English
  49. Language                                 : English
  50. Service kind                             : Complete Main
  51. Default                                  : No
  52. Forced                                   : No
  53. Text #1
  54. ID                                       : 3
  55. Format                                   : UTF-8
  56. Codec ID                                 : S_TEXT/UTF8
  57. Codec ID/Info                            : UTF-8 Plain Text
  58. Duration                                 : 1 h 21 min
  59. Bit rate                                 : 314 b/s
  60. Frame rate                               : 0.347 FPS
  61. Count of elements                        : 1696
  62. Stream size                              : 187 KiB (0%)
  63. Title                                    : SDH
  64. Language                                 : English
  65. Default                                  : No
  66. Forced                                   : No
  67. Text #2
  68. ID                                       : 4
  69. Format                                   : UTF-8
  70. Codec ID                                 : S_TEXT/UTF8
  71. Codec ID/Info                            : UTF-8 Plain Text
  72. Duration                                 : 1 h 21 min
  73. Bit rate                                 : 314 b/s
  74. Frame rate                               : 0.347 FPS
  75. Count of elements                        : 1696
  76. Stream size                              : 187 KiB (0%)
  77. Title                                    : SDH
  78. Language                                 : English
  79. Default                                  : No
  80. Forced                                   : No
复制代码





                                       
                                       

                                       
                                       
                                       




The.Nitwits.1935.1080p.HMAX.WEBRip.DD2.0.x264-tijuco.torrent (25.23 KB, 下载次数: 0)
回复

使用道具 举报

懒得打字嘛,点击右侧快捷回复 【右侧内容,后台自定义】
您需要登录后才可以回帖 登录 | 立即注册

本版积分规则

Archiver|手机版|小黑屋| 中国高清网 |网站地图 

GMT+8, 2022-9-28 12:22 , Processed in 0.091306 second(s), 26 queries .

Powered by HDchina X3.4

Copyright 2017-2019©HDchina.All right reserved

返回顶部 联系我们