查看: 20|回复: 0

[剧情片] 巴黎一妇人 A.Woman.of.Paris.A.Drama.of.Fate.1923.1080p.HMAX.WEBRip.DD2.0.x264-tijuco 4.91GB

[复制链接]
蓝光币
44 枚
发表于 6 天前 | 显示全部楼层 |阅读模式
[img][/img]

◎标  题 巴黎一妇人
◎片  名 A Woman of Paris: A Drama of Fate
◎年  代 1923
◎产  地 美国
◎类  别 剧情 / 恋爱
◎语  言 无对白
◎上映日期 1923-10-01
◎IMDb评分 6.9/10 (5566人评价)
◎IMDb链接 https://www.imdb.com/title/tt0014624/
◎豆瓣评分 7.7/10 (1186人评价)
◎豆瓣链接 https://movie.douban.com/subject/1296988/
◎片  长 USA: 78 分钟(1976 release)
◎导  演 查理·卓别林 Charles Chaplin
◎编  剧 查理·卓别林 Charles Chaplin
◎演  员 艾德娜·珀薇安丝 Edna Purviance
       丽迪雅诺特 Lydia Knott
       查尔斯·K·弗伦奇 Charles K. French
       查理·卓别林 Charles Chaplin
       马尔维娜·波罗 Malvina Polo
       阿道夫·门吉欧 Adolphe Menjou
       卡尔米勒 Carl Miller
       Clarence Geldart Clarence Geldart
       查理·卓别林 Charles Chaplin
       查理·卓别林 Charles Chaplin
       查理·卓别林 Charles Chaplin
◎简  介

  年轻的法国姑娘马莉(艾德娜·珀薇安丝 Edna Purviance 饰)同名为约翰(卡尔米勒 Carl Miller 饰)的小伙子相爱了,可是这段豪情却遭到了他们的家人的否决。因而,约翰和马莉相约私奔前往巴黎。但是就在约定的那一夜,约翰的父亲不幸身亡,约翰没有可以赴约。马莉以为约翰变了心,在哀痛和疾苦当中单独一人前往巴黎。                                    
                                一晃眼数年曩昔,马莉成为了富翁皮埃尔(阿道夫·门吉欧 Adolphe Menjou 饰)的地下情人,全日过着花天酒地的生活。某日,她居然在陌头和约翰重逢了,此时的约翰只是一介名不见经传的知名画家,但两人之间的爱意还是死灰复燃。可是,约翰的母亲并不相信马莉对儿子的豪情,死力的想要拆散两人。
  1. Video
  2. ID                                       : 1
  3. Format                                   : AVC
  4. Format/Info                              : Advanced Video Codec
  5. Format profile                           : [email protected]
  6. Format settings                          : CABAC / 4 Ref Frames
  7. Format settings, CABAC                   : Yes
  8. Format settings, Reference frames        : 4 frames
  9. Codec ID                                 : V_MPEG4/ISO/AVC
  10. Duration                                 : 1 h 21 min
  11. Bit rate mode                            : Variable
  12. Bit rate                                 : 8 250 kb/s
  13. Maximum bit rate                         : 12.4 Mb/s
  14. Width                                    : 1 440 pixels
  15. Height                                   : 1 080 pixels
  16. Display aspect ratio                     : 4:3
  17. Frame rate mode                          : Constant
  18. Frame rate                               : 23.976 (24000/1001/189150) FPS
  19. Color space                              : YUV
  20. Chroma subsampling                       : 4:2:0
  21. Bit depth                                : 8 bits
  22. Scan type                                : Progressive
  23. Bits/(Pixel*Frame)                       : 0.221
  24. Stream size                              : 4.69 GiB (96%)
  25. Writing library                          : x264 core 157 r2965 861cec4
  26. Encoding settings                        : cabac=1 / ref=4 / deblock=1:0:0 / analyse=0x3:0x113 / me=hex / subme=7 / psy=1 / psy_rd=1.00:0.00 / mixed_ref=1 / me_range=16 / chroma_me=1 / trellis=1 / 8x8dct=1 / cqm=0 / deadzone=21,11 / fast_pskip=1 / chroma_qp_offset=-2 / threads=34 / lookahead_threads=5 / sliced_threads=0 / nr=0 / decimate=1 / interlaced=0 / bluray_compat=0 / constrained_intra=0 / bframes=3 / b_pyramid=2 / b_adapt=1 / b_bias=0 / direct=1 / weightb=1 / open_gop=0 / weightp=2 / keyint=96 / keyint_min=96 / scenecut=40 / intra_refresh=0 / rc_lookahead=40 / rc=2pass / mbtree=1 / bitrate=8250 / ratetol=1.0 / qcomp=0.60 / qpmin=0 / qpmax=69 / qpstep=4 / cplxblur=20.0 / qblur=0.5 / vbv_maxrate=12375 / vbv_bufsize=6187 / nal_hrd=vbr / filler=0 / ip_ratio=1.40 / aq=1:1.00
  27. Default                                  : Yes
  28. Forced                                   : No
  29. Color range                              : Limited
  30. Color primaries                          : BT.709
  31. Transfer characteristics                 : BT.709
  32. Matrix coefficients                      : BT.709
  33. Audio
  34. ID                                       : 2
  35. Format                                   : AC-3
  36. Format/Info                              : Audio Coding 3
  37. Commercial name                          : Dolby Digital
  38. Codec ID                                 : A_AC3
  39. Duration                                 : 1 h 21 min
  40. Bit rate mode                            : Constant
  41. Bit rate                                 : 384 kb/s
  42. Channel(s)                               : 2 channels
  43. Channel layout                           : L R
  44. Sampling rate                            : 48.0 kHz
  45. Frame rate                               : 31.250 FPS (1536 SPF)
  46. Compression mode                         : Lossy
  47. Stream size                              : 224 MiB (4%)
  48. Title                                    : English
  49. Language                                 : English
  50. Service kind                             : Complete Main
  51. Default                                  : Yes
  52. Forced                                   : No
复制代码




                                       
                                       

                                       
                                       
                                       




A.Woman.of.Paris.A.Drama.of.Fate.1923.1080p.HMAX.WEBRip.DD2.0.x264-tijuco.torrent (25.22 KB, 下载次数: 0)
回复

使用道具 举报

懒得打字嘛,点击右侧快捷回复 【右侧内容,后台自定义】
您需要登录后才可以回帖 登录 | 立即注册

本版积分规则

Archiver|手机版|小黑屋| 中国高清网 |网站地图 

GMT+8, 2022-9-28 10:22 , Processed in 0.089156 second(s), 26 queries .

Powered by HDchina X3.4

Copyright 2017-2019©HDchina.All right reserved

返回顶部 联系我们