查看: 22|回复: 0

[2160p] 巨鳄风暴 Crawl.2019.2160p.BluRay.x265.10bit.SDR.DTS-HD.MA.7.1-SWTYBLZ 20.51GB

[复制链接]
蓝光币
44 枚
发表于 6 天前 | 显示全部楼层 |阅读模式
[img][/img]

◎标  题 巨鳄风暴
◎译  名 噬逃险鳄(港) / 鳄魔(台) / 匍匐
◎片  名 Crawl
◎年  代 2019
◎产  地 美国 / 塞尔维亚 / 加拿大
◎类  别 剧情 / 惊悚 / 灾难
◎语  言 英语
◎上映日期 2019-09-12(中国大陆) / 2019-07-12(美国)
◎IMDb评分 6.1/10 (78944人评价)
◎IMDb链接 https://www.imdb.com/title/tt8364368/
◎豆瓣评分 5.7/10 (47114人评价)
◎豆瓣链接 https://movie.douban.com/subject/30210700/
◎片  长 87分钟
◎导  演 亚历山大·阿嘉 Alexandre Aja
◎编  剧 迈克尔·拉斯姆森 Michael Rasmussen
       肖恩·拉斯姆森 Shawn Rasmussen
◎演  员 卡雅·斯考达里奥 Kaya Scodelario
       巴里·佩珀 Barry Pepper
       罗斯·安德森 Ross Anderson
       安森·布恩 Anson Boon
       乔治·索纳 George Somner
       阿米‧梅特卡夫 Ami Metcalf
       何塞‧帕尔马 Jose Palma
       莫菲德·克拉克 Morfydd Clark
       安娜玛丽亚·塞尔达 Annamaria Serda
       萨凡纳·斯泰恩 Savannah Steyn
       乔瓦娜·德拉加 Jovana Dragas
       柯林·麦克法兰 Colin McFarlane
       蒂娜‧普里比切维奇 Tina Pribicevic
       可可 Cso-Cso
◎标  签 灾难 / 惊悚 / 鳄鱼 / 美国 / 可骇 / 血腥 / 2019 / 怪兽
◎简  介

    故事发生在位于美国佛罗里达州的一座小镇内,一场狠恶的飓风在居民们措手不及的情况下攻击了该小镇。海丽(卡雅·斯考达里奥 Kaya Scodelario 饰)是一位泅水运带动,在练习中,她接到了姐姐打来的电话,姐姐告诉她,她们的父亲戴夫(巴里·佩珀 Barry Pepper 饰)失落了。                                                                      政府号令小镇上一切的居民们都从家中撤离,可是海丽没法弃父亲于掉臂,私行折归来到了父亲的家中,果不其然,在地下室里,海丽找到了身受重伤的父亲,假如不是她即使出现,那末戴夫将必死无疑。现在,父女两人需要面临的,是逐步被大水填满的地下室,但很快,海丽就意想到,他们的对手并非这么简单,有一些邪恶而又泼辣的黑影隐藏在水面之下。
  1. Video
  2. ID                                       : 1
  3. Format                                   : HEVC
  4. Format/Info                              : High Efficiency Video Coding
  5. Format profile                           : Main [email protected]@High
  6. Codec ID                                 : V_MPEGH/ISO/HEVC
  7. Duration                                 : 1 h 27 min
  8. Bit rate                                 : 27.7 Mb/s
  9. Width                                    : 3 840 pixels
  10. Height                                   : 1 608 pixels
  11. Display aspect ratio                     : 2.40:1
  12. Frame rate mode                          : Constant
  13. Frame rate                               : 23.976 (24000/1001/189150) FPS
  14. Color space                              : YUV
  15. Chroma subsampling                       : 4:2:0
  16. Bit depth                                : 10 bits
  17. Bits/(Pixel*Frame)                       : 0.187
  18. Stream size                              : 17.0 GiB (83%)
  19. Writing library                          : x265 3.0ed72af837053:[Windows][GCC 8.2.0][64 bit] 10bit
  20. Encoding settings                        : cpuid=1111039 / frame-threads=6 / numa-pools=40 / wpp / no-pmode / no-pme / no-psnr / no-ssim / log-level=2 / input-csp=1 / input-res=3840x1608 / interlace=0 / total-frames=125962 / level-idc=51 / high-tier=1 / uhd-bd=0 / ref=3 / no-allow-non-conformance / repeat-headers / annexb / aud / hrd / info / hash=0 / no-temporal-layers / no-open-gop / min-keyint=1 / keyint=24 / gop-lookahead=0 / bframes=4 / b-adapt=2 / b-pyramid / bframe-bias=0 / rc-lookahead=25 / lookahead-slices=4 / scenecut=40 / radl=0 / no-splice / no-intra-refresh / ctu=64 / min-cu-size=8 / no-rect / no-amp / max-tu-size=32 / tu-inter-depth=1 / tu-intra-depth=1 / limit-tu=0 / rdoq-level=0 / dynamic-rd=0.00 / no-ssim-rd / signhide / no-tskip / nr-intra=0 / nr-inter=0 / no-constrained-intra / strong-intra-smoothing / max-merge=2 / limit-refs=3 / no-limit-modes / me=1 / subme=2 / merange=57 / temporal-mvp / weightp / no-weightb / no-analyze-src-pics / deblock=0:0 / no-sao / no-sao-non-deblock / rd=3 / no-early-skip / rskip / no-fast-intra / no-tskip-fast / no-cu-lossless / no-b-intra / no-splitrd-skip / rdpenalty=0 / psy-rd=2.00 / psy-rdoq=0.00 / no-rd-refine / no-lossless / cbqpoffs=0 / crqpoffs=0 / rc=crf / crf=16.0 / qcomp=0.60 / qpstep=4 / stats-write=0 / stats-read=0 / vbv-maxrate=160000 / vbv-bufsize=160000 / vbv-init=0.9 / crf-max=0.0 / crf-min=0.0 / ipratio=1.40 / pbratio=1.30 / aq-mode=1 / aq-strength=1.00 / cutree / zone-count=0 / no-strict-cbr / qg-size=32 / no-rc-grain / qpmax=69 / qpmin=0 / no-const-vbv / sar=1 / overscan=0 / videoformat=5 / range=0 / colorprim=2 / transfer=2 / colormatrix=2 / chromaloc=0 / display-window=0 / max-cll=0,0 / min-luma=0 / max-luma=1023 / log2-max-poc-lsb=8 / vui-timing-info / vui-hrd-info / slices=1 / opt-qp-pps / opt-ref-list-length-pps / no-multi-pass-opt-rps / scenecut-bias=0.05 / no-opt-cu-delta-qp / no-aq-motion / no-hdr / no-hdr-opt / no-dhdr10-opt / no-idr-recovery-sei / analysis-reuse-level=5 / scale-factor=0 / refine-intra=0 / refine-inter=0 / refine-mv=0 / refine-ctu-distortion=0 / no-limit-sao / ctu-info=0 / no-lowpass-dct / refine-analysis-type=0 / copy-pic=1 / max-ausize-factor=1.0 / no-dynamic-refine / no-single-sei / no-hevc-aq / qp-adaptation-range=1.00
  21. Default                                  : Yes
  22. Forced                                   : No
  23. Audio #1
  24. ID                                       : 2
  25. ID in the original source medium         : 4352 (0x1100)
  26. Format                                   : DTS XLL
  27. Format/Info                              : Digital Theater Systems
  28. Commercial name                          : DTS-HD Master Audio
  29. Codec ID                                 : A_DTS
  30. Duration                                 : 1 h 27 min
  31. Bit rate mode                            : Variable
  32. Bit rate                                 : 4 859 kb/s
  33. Channel(s)                               : 8 channels
  34. Channel layout                           : C L R LFE Lb Rb Lss Rss
  35. Sampling rate                            : 48.0 kHz
  36. Frame rate                               : 93.750 FPS (512 SPF)
  37. Bit depth                                : 24 bits
  38. Compression mode                         : Lossless
  39. Stream size                              : 2.97 GiB (15%)
  40. Title                                    : DTS-HD MA 7.1
  41. Language                                 : English
  42. Default                                  : Yes
  43. Forced                                   : No
  44. Original source medium                   : Blu-ray
  45. Audio #2
  46. ID                                       : 3
  47. Format                                   : AC-3
  48. Format/Info                              : Audio Coding 3
  49. Commercial name                          : Dolby Digital
  50. Codec ID                                 : A_AC3
  51. Duration                                 : 1 h 27 min
  52. Bit rate mode                            : Constant
  53. Bit rate                                 : 640 kb/s
  54. Channel(s)                               : 6 channels
  55. Channel layout                           : L R C LFE Ls Rs
  56. Sampling rate                            : 48.0 kHz
  57. Frame rate                               : 31.250 FPS (1536 SPF)
  58. Compression mode                         : Lossy
  59. Stream size                              : 401 MiB (2%)
  60. Title                                    : DD 5.1
  61. Language                                 : English
  62. Service kind                             : Complete Main
  63. Default                                  : No
  64. Forced                                   : No
  65. Text #1
  66. ID                                       : 4
  67. Format                                   : UTF-8
  68. Codec ID                                 : S_TEXT/UTF8
  69. Codec ID/Info                            : UTF-8 Plain Text
  70. Duration                                 : 1 h 22 min
  71. Bit rate                                 : 25 b/s
  72. Frame rate                               : 0.129 FPS
  73. Count of elements                        : 640
  74. Stream size                              : 15.5 KiB (0%)
  75. Language                                 : English
  76. Default                                  : Yes
  77. Forced                                   : No
  78. Text #2
  79. ID                                       : 5
  80. Format                                   : UTF-8
  81. Codec ID                                 : S_TEXT/UTF8
  82. Codec ID/Info                            : UTF-8 Plain Text
  83. Duration                                 : 1 h 24 min
  84. Bit rate                                 : 30 b/s
  85. Frame rate                               : 0.163 FPS
  86. Count of elements                        : 831
  87. Stream size                              : 18.8 KiB (0%)
  88. Title                                    : SDH
  89. Language                                 : English
  90. Default                                  : No
  91. Forced                                   : No
  92. Text #3
  93. ID                                       : 6
  94. ID in the original source medium         : 4768 (0x12A0)
  95. Format                                   : PGS
  96. Muxing mode                              : zlib
  97. Codec ID                                 : S_HDMV/PGS
  98. Codec ID/Info                            : Picture based subtitle format used on BDs/HD-DVDs
  99. Duration                                 : 1 h 16 min
  100. Bit rate                                 : 14.4 kb/s
  101. Frame rate                               : 0.246 FPS
  102. Count of elements                        : 1136
  103. Stream size                              : 7.91 MiB (0%)
  104. Language                                 : English
  105. Default                                  : No
  106. Forced                                   : No
  107. Original source medium                   : Blu-ray
  108. Text #4
  109. ID                                       : 7
  110. ID in the original source medium         : 4769 (0x12A1)
  111. Format                                   : PGS
  112. Muxing mode                              : zlib
  113. Codec ID                                 : S_HDMV/PGS
  114. Codec ID/Info                            : Picture based subtitle format used on BDs/HD-DVDs
  115. Duration                                 : 1 h 24 min
  116. Bit rate                                 : 17.9 kb/s
  117. Frame rate                               : 0.326 FPS
  118. Count of elements                        : 1662
  119. Stream size                              : 10.9 MiB (0%)
  120. Title                                    : SDH
  121. Language                                 : English
  122. Default                                  : No
  123. Forced                                   : No
  124. Original source medium                   : Blu-ray
  125. Text #5
  126. ID                                       : 8
  127. ID in the original source medium         : 4770 (0x12A2)
  128. Format                                   : PGS
  129. Muxing mode                              : zlib
  130. Codec ID                                 : S_HDMV/PGS
  131. Codec ID/Info                            : Picture based subtitle format used on BDs/HD-DVDs
  132. Duration                                 : 1 h 24 min
  133. Bit rate                                 : 12.0 kb/s
  134. Frame rate                               : 0.216 FPS
  135. Count of elements                        : 1096
  136. Stream size                              : 7.24 MiB (0%)
  137. Language                                 : Danish
  138. Default                                  : No
  139. Forced                                   : No
  140. Original source medium                   : Blu-ray
  141. Text #6
  142. ID                                       : 9
  143. ID in the original source medium         : 4771 (0x12A3)
  144. Format                                   : PGS
  145. Muxing mode                              : zlib
  146. Codec ID                                 : S_HDMV/PGS
  147. Codec ID/Info                            : Picture based subtitle format used on BDs/HD-DVDs
  148. Duration                                 : 1 h 26 min
  149. Bit rate                                 : 12.3 kb/s
  150. Frame rate                               : 0.204 FPS
  151. Count of elements                        : 1060
  152. Stream size                              : 7.63 MiB (0%)
  153. Language                                 : German
  154. Default                                  : No
  155. Forced                                   : No
  156. Original source medium                   : Blu-ray
  157. Text #7
  158. ID                                       : 10
  159. ID in the original source medium         : 4772 (0x12A4)
  160. Format                                   : PGS
  161. Muxing mode                              : zlib
  162. Codec ID                                 : S_HDMV/PGS
  163. Codec ID/Info                            : Picture based subtitle format used on BDs/HD-DVDs
  164. Duration                                 : 1 h 26 min
  165. Bit rate                                 : 12.8 kb/s
  166. Frame rate                               : 0.223 FPS
  167. Count of elements                        : 1158
  168. Stream size                              : 7.95 MiB (0%)
  169. Language                                 : Spanish
  170. Default                                  : No
  171. Forced                                   : No
  172. Original source medium                   : Blu-ray
  173. Text #8
  174. ID                                       : 11
  175. ID in the original source medium         : 4773 (0x12A5)
  176. Format                                   : PGS
  177. Muxing mode                              : zlib
  178. Codec ID                                 : S_HDMV/PGS
  179. Codec ID/Info                            : Picture based subtitle format used on BDs/HD-DVDs
  180. Duration                                 : 1 h 26 min
  181. Bit rate                                 : 12.4 kb/s
  182. Frame rate                               : 0.224 FPS
  183. Count of elements                        : 1162
  184. Stream size                              : 7.66 MiB (0%)
  185. Language                                 : Spanish
  186. Default                                  : No
  187. Forced                                   : No
  188. Original source medium                   : Blu-ray
  189. Text #9
  190. ID                                       : 12
  191. ID in the original source medium         : 4774 (0x12A6)
  192. Format                                   : PGS
  193. Muxing mode                              : zlib
  194. Codec ID                                 : S_HDMV/PGS
  195. Codec ID/Info                            : Picture based subtitle format used on BDs/HD-DVDs
  196. Duration                                 : 1 h 26 min
  197. Bit rate                                 : 10.8 kb/s
  198. Frame rate                               : 0.189 FPS
  199. Count of elements                        : 980
  200. Stream size                              : 6.72 MiB (0%)
  201. Language                                 : French
  202. Default                                  : No
  203. Forced                                   : No
  204. Original source medium                   : Blu-ray
  205. Text #10
  206. ID                                       : 13
  207. ID in the original source medium         : 4775 (0x12A7)
  208. Format                                   : PGS
  209. Muxing mode                              : zlib
  210. Codec ID                                 : S_HDMV/PGS
  211. Codec ID/Info                            : Picture based subtitle format used on BDs/HD-DVDs
  212. Duration                                 : 1 h 26 min
  213. Bit rate                                 : 12.3 kb/s
  214. Frame rate                               : 0.213 FPS
  215. Count of elements                        : 1108
  216. Stream size                              : 7.60 MiB (0%)
  217. Language                                 : Italian
  218. Default                                  : No
  219. Forced                                   : No
  220. Original source medium                   : Blu-ray
  221. Text #11
  222. ID                                       : 14
  223. ID in the original source medium         : 4776 (0x12A8)
  224. Format                                   : PGS
  225. Muxing mode                              : zlib
  226. Codec ID                                 : S_HDMV/PGS
  227. Codec ID/Info                            : Picture based subtitle format used on BDs/HD-DVDs
  228. Duration                                 : 1 h 26 min
  229. Bit rate                                 : 7 934 b/s
  230. Frame rate                               : 0.213 FPS
  231. Count of elements                        : 1106
  232. Stream size                              : 4.91 MiB (0%)
  233. Language                                 : Japanese
  234. Default                                  : No
  235. Forced                                   : No
  236. Original source medium                   : Blu-ray
  237. Text #12
  238. ID                                       : 15
  239. ID in the original source medium         : 4777 (0x12A9)
  240. Format                                   : PGS
  241. Muxing mode                              : zlib
  242. Codec ID                                 : S_HDMV/PGS
  243. Codec ID/Info                            : Picture based subtitle format used on BDs/HD-DVDs
  244. Duration                                 : 1 h 24 min
  245. Bit rate                                 : 10.7 kb/s
  246. Frame rate                               : 0.181 FPS
  247. Count of elements                        : 918
  248. Stream size                              : 6.44 MiB (0%)
  249. Language                                 : Dutch
  250. Default                                  : No
  251. Forced                                   : No
  252. Original source medium                   : Blu-ray
  253. Text #13
  254. ID                                       : 16
  255. ID in the original source medium         : 4778 (0x12AA)
  256. Format                                   : PGS
  257. Muxing mode                              : zlib
  258. Codec ID                                 : S_HDMV/PGS
  259. Codec ID/Info                            : Picture based subtitle format used on BDs/HD-DVDs
  260. Duration                                 : 1 h 26 min
  261. Bit rate                                 : 11.3 kb/s
  262. Frame rate                               : 0.223 FPS
  263. Count of elements                        : 1160
  264. Stream size                              : 7.02 MiB (0%)
  265. Language                                 : Norwegian
  266. Default                                  : No
  267. Forced                                   : No
  268. Original source medium                   : Blu-ray
  269. Text #14
  270. ID                                       : 17
  271. ID in the original source medium         : 4779 (0x12AB)
  272. Format                                   : PGS
  273. Muxing mode                              : zlib
  274. Codec ID                                 : S_HDMV/PGS
  275. Codec ID/Info                            : Picture based subtitle format used on BDs/HD-DVDs
  276. Duration                                 : 1 h 26 min
  277. Bit rate                                 : 12.4 kb/s
  278. Frame rate                               : 0.222 FPS
  279. Count of elements                        : 1154
  280. Stream size                              : 7.71 MiB (0%)
  281. Language                                 : Portuguese
  282. Default                                  : No
  283. Forced                                   : No
  284. Original source medium                   : Blu-ray
  285. Text #15
  286. ID                                       : 18
  287. ID in the original source medium         : 4780 (0x12AC)
  288. Format                                   : PGS
  289. Muxing mode                              : zlib
  290. Codec ID                                 : S_HDMV/PGS
  291. Codec ID/Info                            : Picture based subtitle format used on BDs/HD-DVDs
  292. Duration                                 : 1 h 26 min
  293. Bit rate                                 : 11.8 kb/s
  294. Frame rate                               : 0.223 FPS
  295. Count of elements                        : 1158
  296. Stream size                              : 7.31 MiB (0%)
  297. Language                                 : Finnish
  298. Default                                  : No
  299. Forced                                   : No
  300. Original source medium                   : Blu-ray
  301. Text #16
  302. ID                                       : 19
  303. ID in the original source medium         : 4781 (0x12AD)
  304. Format                                   : PGS
  305. Muxing mode                              : zlib
  306. Codec ID                                 : S_HDMV/PGS
  307. Codec ID/Info                            : Picture based subtitle format used on BDs/HD-DVDs
  308. Duration                                 : 1 h 24 min
  309. Bit rate                                 : 12.4 kb/s
  310. Frame rate                               : 0.221 FPS
  311. Count of elements                        : 1122
  312. Stream size                              : 7.51 MiB (0%)
  313. Language                                 : Swedish
  314. Default                                  : No
  315. Forced                                   : No
  316. Original source medium                   : Blu-ray
  317. Menu
  318. 00:00:00.000                             : en:Chapter 01
  319. 00:07:52.805                             : en:Chapter 02
  320. 00:15:17.166                             : en:Chapter 03
  321. 00:22:16.460                             : en:Chapter 04
  322. 00:34:43.915                             : en:Chapter 05
  323. 00:42:16.283                             : en:Chapter 06
  324. 00:50:14.219                             : en:Chapter 07
  325. 00:57:14.222                             : en:Chapter 08
  326. 01:03:52.620                             : en:Chapter 09
  327. 01:08:57.299                             : en:Chapter 10
  328. 01:16:37.426                             : en:Chapter 11
  329. 01:23:11.569                             : en:Chapter 12
复制代码




                                       
                                       

                                       
                                       
                                       




Crawl.2019.2160p.BluRay.x265.10bit.SDR.DTS-HD.MA.7.1-SWTYBLZ.torrent (26.34 KB, 下载次数: 1)
回复

使用道具 举报

懒得打字嘛,点击右侧快捷回复 【右侧内容,后台自定义】
您需要登录后才可以回帖 登录 | 立即注册

本版积分规则

Archiver|手机版|小黑屋| 中国高清网 |网站地图 

GMT+8, 2022-9-28 11:36 , Processed in 0.146718 second(s), 26 queries .

Powered by HDchina X3.4

Copyright 2017-2019©HDchina.All right reserved

返回顶部 联系我们