查看: 20|回复: 0

[2160p] 巨鳄风暴 Crawl.2019.2160p.BluRay.x264.8bit.SDR.DTS-HD.MA.7.1-SWTYBLZ 22.77GB

[复制链接]
蓝光币
44 枚
发表于 6 天前 | 显示全部楼层 |阅读模式
[img][/img]

◎标  题 巨鳄风暴
◎译  名 噬逃险鳄(港) / 鳄魔(台) / 匍匐
◎片  名 Crawl
◎年  代 2019
◎产  地 美国 / 塞尔维亚 / 加拿大
◎类  别 剧情 / 惊悚 / 灾难
◎语  言 英语
◎上映日期 2019-09-12(中国大陆) / 2019-07-12(美国)
◎IMDb评分 6.1/10 (78944人评价)
◎IMDb链接 https://www.imdb.com/title/tt8364368/
◎豆瓣评分 5.7/10 (47114人评价)
◎豆瓣链接 https://movie.douban.com/subject/30210700/
◎片  长 87分钟
◎导  演 亚历山大·阿嘉 Alexandre Aja
◎编  剧 迈克尔·拉斯姆森 Michael Rasmussen
       肖恩·拉斯姆森 Shawn Rasmussen
◎演  员 卡雅·斯考达里奥 Kaya Scodelario
       巴里·佩珀 Barry Pepper
       罗斯·安德森 Ross Anderson
       安森·布恩 Anson Boon
       乔治·索纳 George Somner
       阿米‧梅特卡夫 Ami Metcalf
       何塞‧帕尔马 Jose Palma
       莫菲德·克拉克 Morfydd Clark
       安娜玛丽亚·塞尔达 Annamaria Serda
       萨凡纳·斯泰恩 Savannah Steyn
       乔瓦娜·德拉加 Jovana Dragas
       柯林·麦克法兰 Colin McFarlane
       蒂娜‧普里比切维奇 Tina Pribicevic
       可可 Cso-Cso
◎标  签 灾难 / 惊悚 / 鳄鱼 / 美国 / 可骇 / 血腥 / 2019 / 怪兽
◎简  介

    故事发生在位于美国佛罗里达州的一座小镇内,一场狠恶的飓风在居民们措手不及的情况下攻击了该小镇。海丽(卡雅·斯考达里奥 Kaya Scodelario 饰)是一位泅水运带动,在练习中,她接到了姐姐打来的电话,姐姐告诉她,她们的父亲戴夫(巴里·佩珀 Barry Pepper 饰)失落了。                                                                      政府号令小镇上一切的居民们都从家中撤离,可是海丽没法弃父亲于掉臂,私行折归来到了父亲的家中,果不其然,在地下室里,海丽找到了身受重伤的父亲,假如不是她即使出现,那末戴夫将必死无疑。现在,父女两人需要面临的,是逐步被大水填满的地下室,但很快,海丽就意想到,他们的对手并非这么简单,有一些邪恶而又泼辣的黑影隐藏在水面之下。
  1. Video
  2. ID                                       : 1
  3. Format                                   : AVC
  4. Format/Info                              : Advanced Video Codec
  5. Format profile                           : [email protected]
  6. Format settings                          : CABAC / 5 Ref Frames
  7. Format settings, CABAC                   : Yes
  8. Format settings, Reference frames        : 5 frames
  9. Codec ID                                 : V_MPEG4/ISO/AVC
  10. Duration                                 : 1 h 27 min
  11. Bit rate                                 : 31.4 Mb/s
  12. Width                                    : 3 840 pixels
  13. Height                                   : 1 608 pixels
  14. Display aspect ratio                     : 2.40:1
  15. Frame rate mode                          : Constant
  16. Frame rate                               : 23.976 (24000/1001/189150) FPS
  17. Color space                              : YUV
  18. Chroma subsampling                       : 4:2:0
  19. Bit depth                                : 8 bits
  20. Scan type                                : Progressive
  21. Bits/(Pixel*Frame)                       : 0.212
  22. Stream size                              : 19.2 GiB (85%)
  23. Writing library                          : x264 core 157 r2935 545de2f
  24. Encoding settings                        : cabac=1 / ref=5 / deblock=1:-1:-1 / analyse=0x3:0x113 / me=umh / subme=10 / psy=1 / psy_rd=1.00:0.15 / mixed_ref=1 / me_range=48 / chroma_me=1 / trellis=2 / 8x8dct=1 / cqm=0 / deadzone=21,11 / fast_pskip=1 / chroma_qp_offset=-3 / threads=48 / lookahead_threads=4 / sliced_threads=0 / nr=0 / decimate=0 / interlaced=0 / bluray_compat=0 / constrained_intra=0 / bframes=3 / b_pyramid=2 / b_adapt=2 / b_bias=0 / direct=3 / weightb=1 / open_gop=0 / weightp=2 / keyint=250 / keyint_min=23 / scenecut=40 / intra_refresh=0 / rc_lookahead=50 / rc=crf / mbtree=1 / crf=18.0 / qcomp=0.60 / qpmin=0 / qpmax=69 / qpstep=4 / ip_ratio=1.40 / aq=1:1.00
  25. Default                                  : Yes
  26. Forced                                   : No
  27. Audio #1
  28. ID                                       : 2
  29. ID in the original source medium         : 4352 (0x1100)
  30. Format                                   : DTS XLL
  31. Format/Info                              : Digital Theater Systems
  32. Commercial name                          : DTS-HD Master Audio
  33. Codec ID                                 : A_DTS
  34. Duration                                 : 1 h 27 min
  35. Bit rate mode                            : Variable
  36. Bit rate                                 : 4 859 kb/s
  37. Channel(s)                               : 8 channels
  38. Channel layout                           : C L R LFE Lb Rb Lss Rss
  39. Sampling rate                            : 48.0 kHz
  40. Frame rate                               : 93.750 FPS (512 SPF)
  41. Bit depth                                : 24 bits
  42. Compression mode                         : Lossless
  43. Stream size                              : 2.97 GiB (13%)
  44. Title                                    : DTS-HD MA 7.1
  45. Language                                 : English
  46. Default                                  : Yes
  47. Forced                                   : No
  48. Original source medium                   : Blu-ray
  49. Audio #2
  50. ID                                       : 3
  51. Format                                   : AC-3
  52. Format/Info                              : Audio Coding 3
  53. Commercial name                          : Dolby Digital
  54. Codec ID                                 : A_AC3
  55. Duration                                 : 1 h 27 min
  56. Bit rate mode                            : Constant
  57. Bit rate                                 : 640 kb/s
  58. Channel(s)                               : 6 channels
  59. Channel layout                           : L R C LFE Ls Rs
  60. Sampling rate                            : 48.0 kHz
  61. Frame rate                               : 31.250 FPS (1536 SPF)
  62. Compression mode                         : Lossy
  63. Stream size                              : 401 MiB (2%)
  64. Title                                    : DD 5.1
  65. Language                                 : English
  66. Service kind                             : Complete Main
  67. Default                                  : No
  68. Forced                                   : No
  69. Text #1
  70. ID                                       : 4
  71. Format                                   : UTF-8
  72. Codec ID                                 : S_TEXT/UTF8
  73. Codec ID/Info                            : UTF-8 Plain Text
  74. Duration                                 : 1 h 22 min
  75. Bit rate                                 : 25 b/s
  76. Frame rate                               : 0.129 FPS
  77. Count of elements                        : 640
  78. Stream size                              : 15.5 KiB (0%)
  79. Language                                 : English
  80. Default                                  : Yes
  81. Forced                                   : No
  82. Text #2
  83. ID                                       : 5
  84. Format                                   : UTF-8
  85. Codec ID                                 : S_TEXT/UTF8
  86. Codec ID/Info                            : UTF-8 Plain Text
  87. Duration                                 : 1 h 24 min
  88. Bit rate                                 : 30 b/s
  89. Frame rate                               : 0.163 FPS
  90. Count of elements                        : 831
  91. Stream size                              : 18.8 KiB (0%)
  92. Title                                    : SDH
  93. Language                                 : English
  94. Default                                  : No
  95. Forced                                   : No
  96. Text #3
  97. ID                                       : 6
  98. ID in the original source medium         : 4768 (0x12A0)
  99. Format                                   : PGS
  100. Muxing mode                              : zlib
  101. Codec ID                                 : S_HDMV/PGS
  102. Codec ID/Info                            : Picture based subtitle format used on BDs/HD-DVDs
  103. Duration                                 : 1 h 16 min
  104. Bit rate                                 : 14.4 kb/s
  105. Frame rate                               : 0.246 FPS
  106. Count of elements                        : 1136
  107. Stream size                              : 7.91 MiB (0%)
  108. Language                                 : English
  109. Default                                  : No
  110. Forced                                   : No
  111. Original source medium                   : Blu-ray
  112. Text #4
  113. ID                                       : 7
  114. ID in the original source medium         : 4769 (0x12A1)
  115. Format                                   : PGS
  116. Muxing mode                              : zlib
  117. Codec ID                                 : S_HDMV/PGS
  118. Codec ID/Info                            : Picture based subtitle format used on BDs/HD-DVDs
  119. Duration                                 : 1 h 24 min
  120. Bit rate                                 : 17.9 kb/s
  121. Frame rate                               : 0.326 FPS
  122. Count of elements                        : 1662
  123. Stream size                              : 10.9 MiB (0%)
  124. Title                                    : SDH
  125. Language                                 : English
  126. Default                                  : No
  127. Forced                                   : No
  128. Original source medium                   : Blu-ray
  129. Text #5
  130. ID                                       : 8
  131. ID in the original source medium         : 4770 (0x12A2)
  132. Format                                   : PGS
  133. Muxing mode                              : zlib
  134. Codec ID                                 : S_HDMV/PGS
  135. Codec ID/Info                            : Picture based subtitle format used on BDs/HD-DVDs
  136. Duration                                 : 1 h 24 min
  137. Bit rate                                 : 12.0 kb/s
  138. Frame rate                               : 0.216 FPS
  139. Count of elements                        : 1096
  140. Stream size                              : 7.24 MiB (0%)
  141. Language                                 : Danish
  142. Default                                  : No
  143. Forced                                   : No
  144. Original source medium                   : Blu-ray
  145. Text #6
  146. ID                                       : 9
  147. ID in the original source medium         : 4771 (0x12A3)
  148. Format                                   : PGS
  149. Muxing mode                              : zlib
  150. Codec ID                                 : S_HDMV/PGS
  151. Codec ID/Info                            : Picture based subtitle format used on BDs/HD-DVDs
  152. Duration                                 : 1 h 26 min
  153. Bit rate                                 : 12.3 kb/s
  154. Frame rate                               : 0.204 FPS
  155. Count of elements                        : 1060
  156. Stream size                              : 7.63 MiB (0%)
  157. Language                                 : German
  158. Default                                  : No
  159. Forced                                   : No
  160. Original source medium                   : Blu-ray
  161. Text #7
  162. ID                                       : 10
  163. ID in the original source medium         : 4772 (0x12A4)
  164. Format                                   : PGS
  165. Muxing mode                              : zlib
  166. Codec ID                                 : S_HDMV/PGS
  167. Codec ID/Info                            : Picture based subtitle format used on BDs/HD-DVDs
  168. Duration                                 : 1 h 26 min
  169. Bit rate                                 : 12.8 kb/s
  170. Frame rate                               : 0.223 FPS
  171. Count of elements                        : 1158
  172. Stream size                              : 7.95 MiB (0%)
  173. Language                                 : Spanish
  174. Default                                  : No
  175. Forced                                   : No
  176. Original source medium                   : Blu-ray
  177. Text #8
  178. ID                                       : 11
  179. ID in the original source medium         : 4773 (0x12A5)
  180. Format                                   : PGS
  181. Muxing mode                              : zlib
  182. Codec ID                                 : S_HDMV/PGS
  183. Codec ID/Info                            : Picture based subtitle format used on BDs/HD-DVDs
  184. Duration                                 : 1 h 26 min
  185. Bit rate                                 : 12.4 kb/s
  186. Frame rate                               : 0.224 FPS
  187. Count of elements                        : 1162
  188. Stream size                              : 7.66 MiB (0%)
  189. Language                                 : Spanish
  190. Default                                  : No
  191. Forced                                   : No
  192. Original source medium                   : Blu-ray
  193. Text #9
  194. ID                                       : 12
  195. ID in the original source medium         : 4774 (0x12A6)
  196. Format                                   : PGS
  197. Muxing mode                              : zlib
  198. Codec ID                                 : S_HDMV/PGS
  199. Codec ID/Info                            : Picture based subtitle format used on BDs/HD-DVDs
  200. Duration                                 : 1 h 26 min
  201. Bit rate                                 : 10.8 kb/s
  202. Frame rate                               : 0.189 FPS
  203. Count of elements                        : 980
  204. Stream size                              : 6.72 MiB (0%)
  205. Language                                 : French
  206. Default                                  : No
  207. Forced                                   : No
  208. Original source medium                   : Blu-ray
  209. Text #10
  210. ID                                       : 13
  211. ID in the original source medium         : 4775 (0x12A7)
  212. Format                                   : PGS
  213. Muxing mode                              : zlib
  214. Codec ID                                 : S_HDMV/PGS
  215. Codec ID/Info                            : Picture based subtitle format used on BDs/HD-DVDs
  216. Duration                                 : 1 h 26 min
  217. Bit rate                                 : 12.3 kb/s
  218. Frame rate                               : 0.213 FPS
  219. Count of elements                        : 1108
  220. Stream size                              : 7.60 MiB (0%)
  221. Language                                 : Italian
  222. Default                                  : No
  223. Forced                                   : No
  224. Original source medium                   : Blu-ray
  225. Text #11
  226. ID                                       : 14
  227. ID in the original source medium         : 4776 (0x12A8)
  228. Format                                   : PGS
  229. Muxing mode                              : zlib
  230. Codec ID                                 : S_HDMV/PGS
  231. Codec ID/Info                            : Picture based subtitle format used on BDs/HD-DVDs
  232. Duration                                 : 1 h 26 min
  233. Bit rate                                 : 7 934 b/s
  234. Frame rate                               : 0.213 FPS
  235. Count of elements                        : 1106
  236. Stream size                              : 4.91 MiB (0%)
  237. Language                                 : Japanese
  238. Default                                  : No
  239. Forced                                   : No
  240. Original source medium                   : Blu-ray
  241. Text #12
  242. ID                                       : 15
  243. ID in the original source medium         : 4777 (0x12A9)
  244. Format                                   : PGS
  245. Muxing mode                              : zlib
  246. Codec ID                                 : S_HDMV/PGS
  247. Codec ID/Info                            : Picture based subtitle format used on BDs/HD-DVDs
  248. Duration                                 : 1 h 24 min
  249. Bit rate                                 : 10.7 kb/s
  250. Frame rate                               : 0.181 FPS
  251. Count of elements                        : 918
  252. Stream size                              : 6.44 MiB (0%)
  253. Language                                 : Dutch
  254. Default                                  : No
  255. Forced                                   : No
  256. Original source medium                   : Blu-ray
  257. Text #13
  258. ID                                       : 16
  259. ID in the original source medium         : 4778 (0x12AA)
  260. Format                                   : PGS
  261. Muxing mode                              : zlib
  262. Codec ID                                 : S_HDMV/PGS
  263. Codec ID/Info                            : Picture based subtitle format used on BDs/HD-DVDs
  264. Duration                                 : 1 h 26 min
  265. Bit rate                                 : 11.3 kb/s
  266. Frame rate                               : 0.223 FPS
  267. Count of elements                        : 1160
  268. Stream size                              : 7.02 MiB (0%)
  269. Language                                 : Norwegian
  270. Default                                  : No
  271. Forced                                   : No
  272. Original source medium                   : Blu-ray
  273. Text #14
  274. ID                                       : 17
  275. ID in the original source medium         : 4779 (0x12AB)
  276. Format                                   : PGS
  277. Muxing mode                              : zlib
  278. Codec ID                                 : S_HDMV/PGS
  279. Codec ID/Info                            : Picture based subtitle format used on BDs/HD-DVDs
  280. Duration                                 : 1 h 26 min
  281. Bit rate                                 : 12.4 kb/s
  282. Frame rate                               : 0.222 FPS
  283. Count of elements                        : 1154
  284. Stream size                              : 7.71 MiB (0%)
  285. Language                                 : Portuguese
  286. Default                                  : No
  287. Forced                                   : No
  288. Original source medium                   : Blu-ray
  289. Text #15
  290. ID                                       : 18
  291. ID in the original source medium         : 4780 (0x12AC)
  292. Format                                   : PGS
  293. Muxing mode                              : zlib
  294. Codec ID                                 : S_HDMV/PGS
  295. Codec ID/Info                            : Picture based subtitle format used on BDs/HD-DVDs
  296. Duration                                 : 1 h 26 min
  297. Bit rate                                 : 11.8 kb/s
  298. Frame rate                               : 0.223 FPS
  299. Count of elements                        : 1158
  300. Stream size                              : 7.31 MiB (0%)
  301. Language                                 : Finnish
  302. Default                                  : No
  303. Forced                                   : No
  304. Original source medium                   : Blu-ray
  305. Text #16
  306. ID                                       : 19
  307. ID in the original source medium         : 4781 (0x12AD)
  308. Format                                   : PGS
  309. Muxing mode                              : zlib
  310. Codec ID                                 : S_HDMV/PGS
  311. Codec ID/Info                            : Picture based subtitle format used on BDs/HD-DVDs
  312. Duration                                 : 1 h 24 min
  313. Bit rate                                 : 12.4 kb/s
  314. Frame rate                               : 0.221 FPS
  315. Count of elements                        : 1122
  316. Stream size                              : 7.51 MiB (0%)
  317. Language                                 : Swedish
  318. Default                                  : No
  319. Forced                                   : No
  320. Original source medium                   : Blu-ray
  321. Menu
  322. 00:00:00.000                             : en:Chapter 01
  323. 00:07:52.805                             : en:Chapter 02
  324. 00:15:17.166                             : en:Chapter 03
  325. 00:22:16.460                             : en:Chapter 04
  326. 00:34:43.915                             : en:Chapter 05
  327. 00:42:16.283                             : en:Chapter 06
  328. 00:50:14.219                             : en:Chapter 07
  329. 00:57:14.222                             : en:Chapter 08
  330. 01:03:52.620                             : en:Chapter 09
  331. 01:08:57.299                             : en:Chapter 10
  332. 01:16:37.426                             : en:Chapter 11
  333. 01:23:11.569                             : en:Chapter 12
复制代码




                                       
                                       

                                       
                                       
                                       




Crawl.2019.2160p.BluRay.x264.8bit.SDR.DTS-HD.MA.7.1-SWTYBLZ.torrent (29.17 KB, 下载次数: 0)
回复

使用道具 举报

懒得打字嘛,点击右侧快捷回复 【右侧内容,后台自定义】
您需要登录后才可以回帖 登录 | 立即注册

本版积分规则

Archiver|手机版|小黑屋| 中国高清网 |网站地图 

GMT+8, 2022-9-28 11:26 , Processed in 0.120167 second(s), 26 queries .

Powered by HDchina X3.4

Copyright 2017-2019©HDchina.All right reserved

返回顶部 联系我们