查看: 63|回复: 1

[剧情片] 露丝欲望 The.Alcove.1985.DUBBED.1080p.BluRay.x264-WATCHABLE 14.65GB

[复制链接]
蓝光币
44 枚
发表于 6 天前 | 显示全部楼层 |阅读模式
[img][/img]

◎标  题 露丝愿望
◎译  名 The Alcove / Lust
◎片  名 L'alcova
◎年  代 1985
◎产  地 意大利
◎类  别 剧情 / 恋爱
◎语  言 意大利语
◎上映日期 1985-01-21(意大利)
◎IMDb评分 4.9/10 (510人评价)
◎IMDb链接 https://www.imdb.com/title/tt0086868/
◎豆瓣链接 https://movie.douban.com/subject/4116377/
◎片  长 Portugal: 88 分钟
◎导  演 乔·达马托 Joe D'Amato
◎演  员 劳拉·贾姆瑟 Laura Gemser
       莉莉·卡拉蒂 Lilli Carati
       安妮·贝儿 Annie Belle
       内洛·帕扎菲尼 Nello Pazzafini
       阿尔·克里弗 Al Cliver
       曼努埃尔·德西卡 Manuel De Sica
       乔·达马托 Joe D'Amato
       马里亚诺·劳伦蒂 Mariano Laurenti
  1. Video
  2. ID                                       : 1
  3. Format                                   : AVC
  4. Format/Info                              : Advanced Video Codec
  5. Format profile                           : [email protected]
  6. Format settings                          : CABAC / 4 Ref Frames
  7. Format settings, CABAC                   : Yes
  8. Format settings, Reference frames        : 4 frames
  9. Codec ID                                 : V_MPEG4/ISO/AVC
  10. Duration                                 : 1 h 33 min
  11. Bit rate                                 : 21.9 Mb/s
  12. Width                                    : 1 800 pixels
  13. Height                                   : 1 080 pixels
  14. Display aspect ratio                     : 5:3
  15. Frame rate mode                          : Constant
  16. Frame rate                               : 23.976 (24000/1001/189150) FPS
  17. Color space                              : YUV
  18. Chroma subsampling                       : 4:2:0
  19. Bit depth                                : 8 bits
  20. Scan type                                : Progressive
  21. Bits/(Pixel*Frame)                       : 0.469
  22. Stream size                              : 14.3 GiB (98%)
  23. Writing library                          : x264 core 164 r3098 7628a56
  24. Encoding settings                        : cabac=1 / ref=4 / deblock=1:-3:-3 / analyse=0x3:0x133 / me=umh / subme=9 / psy=1 / psy_rd=1.00:0.00 / mixed_ref=1 / me_range=16 / chroma_me=1 / trellis=2 / 8x8dct=1 / cqm=0 / deadzone=21,11 / fast_pskip=0 / chroma_qp_offset=-2 / threads=34 / lookahead_threads=2 / sliced_threads=0 / nr=0 / decimate=0 / interlaced=0 / bluray_compat=0 / constrained_intra=0 / bframes=3 / b_pyramid=2 / b_adapt=2 / b_bias=0 / direct=1 / weightb=1 / open_gop=0 / weightp=2 / keyint=250 / keyint_min=23 / scenecut=40 / intra_refresh=0 / rc=crf / mbtree=0 / crf=18.7 / qcomp=0.60 / qpmin=0 / qpmax=69 / qpstep=4 / ip_ratio=1.40 / pb_ratio=1.30 / aq=3:0.70
  25. Default                                  : Yes
  26. Forced                                   : No
  27. Color range                              : Limited
  28. Color primaries                          : BT.709
  29. Transfer characteristics                 : BT.709
  30. Matrix coefficients                      : BT.709
  31. Audio
  32. ID                                       : 2
  33. Format                                   : FLAC
  34. Format/Info                              : Free Lossless Audio Codec
  35. Codec ID                                 : A_FLAC
  36. Duration                                 : 1 h 33 min
  37. Bit rate mode                            : Variable
  38. Bit rate                                 : 511 kb/s
  39. Channel(s)                               : 2 channels
  40. Channel layout                           : L R
  41. Sampling rate                            : 48.0 kHz
  42. Frame rate                               : 10.417 FPS (4608 SPF)
  43. Bit depth                                : 16 bits
  44. Compression mode                         : Lossless
  45. Stream size                              : 342 MiB (2%)
  46. Title                                    : English
  47. Writing library                          : Lavf59.20.101
  48. Language                                 : English
  49. Default                                  : Yes
  50. Forced                                   : No
  51. Text #1
  52. ID                                       : 3
  53. Format                                   : PGS
  54. Muxing mode                              : zlib
  55. Codec ID                                 : S_HDMV/PGS
  56. Codec ID/Info                            : Picture based subtitle format used on BDs/HD-DVDs
  57. Duration                                 : 1 h 30 min
  58. Bit rate                                 : 25.4 kb/s
  59. Frame rate                               : 0.322 FPS
  60. Count of elements                        : 1752
  61. Stream size                              : 16.5 MiB (0%)
  62. Title                                    : German Full PGS
  63. Language                                 : German
  64. Default                                  : No
  65. Forced                                   : No
  66. Text #2
  67. ID                                       : 4
  68. Format                                   : PGS
  69. Muxing mode                              : zlib
  70. Codec ID                                 : S_HDMV/PGS
  71. Codec ID/Info                            : Picture based subtitle format used on BDs/HD-DVDs
  72. Duration                                 : 42 min 19 s
  73. Bit rate                                 : 189 b/s
  74. Frame rate                               : 0.006 FPS
  75. Count of elements                        : 16
  76. Stream size                              : 58.9 KiB (0%)
  77. Title                                    : German Forced PGS
  78. Language                                 : German
  79. Default                                  : No
  80. Forced                                   : No
  81. Menu
  82. 00:00:00.000                             : en:Chapter 01
  83. 00:07:03.423                             : en:Chapter 02
  84. 00:16:21.772                             : en:Chapter 03
  85. 00:24:41.730                             : en:Chapter 04
  86. 00:31:57.916                             : en:Chapter 05
  87. 00:39:25.530                             : en:Chapter 06
  88. 00:47:32.391                             : en:Chapter 07
  89. 00:55:22.110                             : en:Chapter 08
  90. 00:59:25.645                             : en:Chapter 09
  91. 01:06:24.814                             : en:Chapter 10
  92. 01:16:40.763                             : en:Chapter 11
  93. 01:23:08.108                             : en:Chapter 12
复制代码





                                       
                                       

                                       
                                       
                                       




The.Alcove.1985.DUBBED.1080p.BluRay.x264-WATCHABLE.torrent (19 KB, 下载次数: 2)
回复

使用道具 举报

蓝光币
34 枚
QQ
发表于 5 天前 | 显示全部楼层

这个帖子不回对不起自己!我想我是一天也不能离开中国高清电影网
回复

使用道具 举报

懒得打字嘛,点击右侧快捷回复 【右侧内容,后台自定义】
您需要登录后才可以回帖 登录 | 立即注册

本版积分规则

Archiver|手机版|小黑屋| 中国高清网 |网站地图 

GMT+8, 2022-9-28 10:44 , Processed in 0.089305 second(s), 27 queries .

Powered by HDchina X3.4

Copyright 2017-2019©HDchina.All right reserved

返回顶部 联系我们