查看: 22|回复: 1

[2160p] 为耶稣鸣喇叭,拯救你的灵魂 Honk.for.Jesus.Save.Your.Soul.2022.2160p.WEB-DL.x265.10bit.SDR.DD5.1-NOGRP 8.79GB

[复制链接]
蓝光币
44 枚
发表于 6 天前 | 显示全部楼层 |阅读模式
[img][/img]

◎标  题 为耶稣鸣喇叭,拯救你的灵魂
◎片  名 Honk for Jesus, Save Your Soul
◎年  代 2022
◎产  地 美国
◎类  别 笑剧
◎语  言 英语
◎IMDb评分 5.1/10 (322人评价)
◎IMDb链接 https://www.imdb.com/title/tt12655436/
◎豆瓣链接 https://movie.douban.com/subject/35694782/
◎片  长 102分钟
◎演  员 斯特林·K·布朗 Sterling K. Brown
       雷吉娜·赫尔 Regina Hall
       妮可·贝哈瑞 Nicole Beharie
       奥斯汀·克鲁特 Austin Crute
       康菲德斯 Conphidance
◎简  介

  In the aftermath of a huge scandal, Trinity Childs, the first lady of a prominent Southern Baptist Mega Church, attempts to help her pastor-husband, Lee-Curtis Childs, rebuild their congregation.
  1. Video
  2. ID                                       : 1
  3. Format                                   : HEVC
  4. Format/Info                              : High Efficiency Video Coding
  5. Format profile                           : Main [email protected]@High
  6. Codec ID                                 : V_MPEGH/ISO/HEVC
  7. Duration                                 : 1 h 43 min
  8. Bit rate                                 : 11.7 Mb/s
  9. Width                                    : 3 840 pixels
  10. Height                                   : 2 160 pixels
  11. Display aspect ratio                     : 16:9
  12. Frame rate mode                          : Constant
  13. Frame rate                               : 23.976 FPS
  14. Color space                              : YUV
  15. Chroma subsampling                       : 4:2:0
  16. Bit depth                                : 10 bits
  17. Bits/(Pixel*Frame)                       : 0.059
  18. Stream size                              : 8.51 GiB (97%)
  19. Default                                  : Yes
  20. Forced                                   : No
  21. Color range                              : Limited
  22. Color primaries                          : BT.709
  23. Transfer characteristics                 : BT.709
  24. Matrix coefficients                      : BT.709

  25. Audio
  26. ID                                       : 2
  27. Format                                   : AC-3
  28. Format/Info                              : Audio Coding 3
  29. Commercial name                          : Dolby Digital
  30. Codec ID                                 : A_AC3
  31. Duration                                 : 1 h 43 min
  32. Bit rate mode                            : Constant
  33. Bit rate                                 : 384 kb/s
  34. Channel(s)                               : 6 channels
  35. Channel layout                           : L R C LFE Ls Rs
  36. Sampling rate                            : 48.0 kHz
  37. Frame rate                               : 31.250 FPS (1536 SPF)
  38. Compression mode                         : Lossy
  39. Stream size                              : 285 MiB (3%)
  40. Language                                 : English
  41. Service kind                             : Complete Main
  42. Default                                  : Yes
  43. Forced                                   : No

  44. Text
  45. ID                                       : 3
  46. Format                                   : UTF-8
  47. Codec ID                                 : S_TEXT/UTF8
  48. Codec ID/Info                            : UTF-8 Plain Text
  49. Duration                                 : 1 h 43 min
  50. Bit rate                                 : 86 b/s
  51. Frame rate                               : 0.346 FPS
  52. Count of elements                        : 2139
  53. Stream size                              : 65.5 KiB (0%)
  54. Language                                 : English
  55. Default                                  : Yes
  56. Forced                                   : No
复制代码




                                       
                                       

                                       
                                       
                                       




Honk.for.Jesus.Save.Your.Soul.2022.2160p.WEB-DL.x265.10bit.SDR.DD5.1-NOGRP.torrent (22.63 KB, 下载次数: 0)
回复

使用道具 举报

蓝光币
0 枚
QQ
发表于 6 天前 | 显示全部楼层

QQ 776 775 829  出  良~~~家 ~~~学~~~生~~洗~~浴 ~~会~~所~~~~种~~~ 类~~型 L~~F 信~~息


QQ 776 775 829  出  良~~~家 ~~~学~~~生~~洗~~浴 ~~会~~所~~~~种~~~ 类~~型 L~~F 信~~息


QQ 776 775 829  出  良~~~家 ~~~学~~~生~~洗~~浴 ~~会~~所~~~~种~~~ 类~~型 L~~F 信~~息


QQ 776 775 829  出  良~~~家 ~~~学~~~生~~洗~~浴 ~~会~~所~~~~种~~~ 类~~型 L~~F 信~~息

回复

使用道具 举报

懒得打字嘛,点击右侧快捷回复 【右侧内容,后台自定义】
您需要登录后才可以回帖 登录 | 立即注册

本版积分规则

Archiver|手机版|小黑屋| 中国高清网 |网站地图 

GMT+8, 2022-9-28 12:26 , Processed in 0.084964 second(s), 27 queries .

Powered by HDchina X3.4

Copyright 2017-2019©HDchina.All right reserved

返回顶部 联系我们