查看: 28|回复: 0

[2160p] 不 Nope.2022.2160p.MA.WEB-DL.x265.10bit.SDR.DDP5.1.Atmos-CM 23.16GB

[复制链接]
蓝光币
44 枚
发表于 6 天前 | 显示全部楼层 |阅读模式
[img][/img]

◎标  题 不
◎译  名 不!(台) / 虚无(港) / 不要 / 覅
◎片  名 Nope
◎年  代 2022
◎产  地 美国
◎类  别 科幻 / 悬疑 / 惊悚 / 可骇
◎语  言 英语
◎上映日期 2022-07-22(美国)
◎IMDb评分 7.5/10 (23194人评价)
◎IMDb链接 https://www.imdb.com/title/tt10954984/
◎豆瓣评分 7.5/10 (1229人评价)
◎豆瓣链接 https://movie.douban.com/subject/35240235/
◎片  长 130分钟
◎导  演 乔丹·皮尔 Jordan Peele
◎编  剧 乔丹·皮尔 Jordan Peele
◎演  员 丹尼尔·卡卢亚 Daniel Kaluuya
       柯柯·帕尔莫 Keke Palmer
       布兰登·佩利亚 Brandon Perea
       迈克尔·维克特 Michael Wincott
       史蒂文·延 Steven Yeun
       瑞安·施密特 Wrenn Schmidt
       凯斯·大卫 Keith David
       德文·格拉耶 Devon Graye
       泰瑞·诺塔里 Terry Notary
       芭比·费雷拉 Barbie Ferreira
       唐娜·米尔斯 Donna Mills
       奥兹·珀金斯 Oz Perkins
       埃迪·杰米森 Eddie Jemison
       雅各布·金 Jacob Kim
       索菲娅·柯多 Sophia Coto
       珍妮弗·拉弗勒 Jennifer Lafleur
       安德鲁·帕特里克·拉斯顿 Andrew Patrick Ralston
       阿莱克斯·海德-怀特 Alex Hyde-White
       阿曼达·琼斯 Amanda Jones
       埃文·沙夫兰 Evan Shafran
       马克·卡西米尔·戴妮奇斯 Mark Casimir Dyniewicz
       迈克尔·埃布尔斯 Michael Abels
       霍伊特·范·霍特玛 Hoyte Van Hoytema
       卡门·古巴 Carmen Cuba
       鲁思·德·容 Ruth De Jong
◎简  介

  本片由史蒂文·元、丹尼尔·卡卢亚和柯柯·帕尔莫主演,他们饰演位于加州本地一座荒凉小镇的居民,目击了一场使人不安及毛骨悚然的诡异发现。
  1. Video
  2. ID                                       : 1
  3. Format                                   : HEVC
  4. Format/Info                              : High Efficiency Video Coding
  5. Format profile                           : Main [email protected]@High
  6. Codec ID                                 : V_MPEGH/ISO/HEVC
  7. Duration                                 : 2 h 10 min
  8. Bit rate                                 : 24.6 Mb/s
  9. Width                                    : 3 840 pixels
  10. Height                                   : 2 160 pixels
  11. Display aspect ratio                     : 16:9
  12. Frame rate mode                          : Constant
  13. Frame rate                               : 23.976 (24000/1001/189150) FPS
  14. Color space                              : YUV
  15. Chroma subsampling                       : 4:2:0 (Type 2)
  16. Bit depth                                : 10 bits
  17. Bits/(Pixel*Frame)                       : 0.124
  18. Stream size                              : 22.5 GiB (97%)
  19. Language                                 : English
  20. Default                                  : Yes
  21. Forced                                   : No
  22. Color range                              : Limited
  23. Color primaries                          : BT.709
  24. Transfer characteristics                 : BT.709
  25. Matrix coefficients                      : BT.709

  26. Audio
  27. ID                                       : 2
  28. Format                                   : E-AC-3 JOC
  29. Format/Info                              : Enhanced AC-3 with Joint Object Coding
  30. Commercial name                          : Dolby Digital Plus with Dolby Atmos
  31. Codec ID                                 : A_EAC3
  32. Duration                                 : 2 h 10 min
  33. Bit rate mode                            : Constant
  34. Bit rate                                 : 768 kb/s
  35. Channel(s)                               : 6 channels
  36. Channel layout                           : L R C LFE Ls Rs
  37. Sampling rate                            : 48.0 kHz
  38. Frame rate                               : 31.250 FPS (1536 SPF)
  39. Compression mode                         : Lossy
  40. Stream size                              : 717 MiB (3%)
  41. Language                                 : English
  42. Service kind                             : Complete Main
  43. Default                                  : Yes
  44. Forced                                   : No
  45. Complexity index                         : 16
  46. Number of dynamic objects                : 15
  47. Bed channel count                        : 1 channel
  48. Bed channel configuration                : LFE

  49. Text #1
  50. ID                                       : 3
  51. Format                                   : UTF-8
  52. Codec ID                                 : S_TEXT/UTF8
  53. Codec ID/Info                            : UTF-8 Plain Text
  54. Duration                                 : 2 h 9 min
  55. Bit rate                                 : 46 b/s
  56. Frame rate                               : 0.214 FPS
  57. Count of elements                        : 1662
  58. Stream size                              : 43.8 KiB (0%)
  59. Language                                 : English
  60. Default                                  : No
  61. Forced                                   : No

  62. Text #2
  63. ID                                       : 4
  64. Format                                   : UTF-8
  65. Codec ID                                 : S_TEXT/UTF8
  66. Codec ID/Info                            : UTF-8 Plain Text
  67. Duration                                 : 2 h 10 min
  68. Bit rate                                 : 61 b/s
  69. Frame rate                               : 0.280 FPS
  70. Count of elements                        : 2188
  71. Stream size                              : 58.8 KiB (0%)
  72. Title                                    : SDH
  73. Language                                 : English
  74. Default                                  : No
  75. Forced                                   : No

  76. Text #3
  77. ID                                       : 5
  78. Format                                   : UTF-8
  79. Codec ID                                 : S_TEXT/UTF8
  80. Codec ID/Info                            : UTF-8 Plain Text
  81. Duration                                 : 2 h 10 min
  82. Bit rate                                 : 38 b/s
  83. Frame rate                               : 0.178 FPS
  84. Count of elements                        : 1388
  85. Stream size                              : 37.1 KiB (0%)
  86. Title                                    : Latin American
  87. Language                                 : Spanish
  88. Default                                  : No
  89. Forced                                   : No

  90. Text #4
  91. ID                                       : 6
  92. Format                                   : UTF-8
  93. Codec ID                                 : S_TEXT/UTF8
  94. Codec ID/Info                            : UTF-8 Plain Text
  95. Duration                                 : 2 h 3 min
  96. Bit rate                                 : 40 b/s
  97. Frame rate                               : 0.187 FPS
  98. Count of elements                        : 1386
  99. Stream size                              : 36.4 KiB (0%)
  100. Language                                 : Korean
  101. Default                                  : No
  102. Forced                                   : No

  103. Text #5
  104. ID                                       : 7
  105. Format                                   : UTF-8
  106. Codec ID                                 : S_TEXT/UTF8
  107. Codec ID/Info                            : UTF-8 Plain Text
  108. Duration                                 : 2 h 3 min
  109. Bit rate                                 : 44 b/s
  110. Frame rate                               : 0.193 FPS
  111. Count of elements                        : 1422
  112. Stream size                              : 40.3 KiB (0%)
  113. Language                                 : Turkish
  114. Default                                  : No
  115. Forced                                   : No

  116. Menu
  117. 00:00:00.000                             : en:Chapter 01
  118. 00:08:11.574                             : en:Chapter 02
  119. 00:16:52.428                             : en:Chapter 03
  120. 00:25:34.033                             : en:Chapter 04
  121. 00:33:44.023                             : en:Chapter 05
  122. 00:40:02.360                             : en:Chapter 06
  123. 00:48:42.255                             : en:Chapter 07
  124. 00:57:39.375                             : en:Chapter 08
  125. 01:04:26.199                             : en:Chapter 09
  126. 01:12:38.107                             : en:Chapter 10
  127. 01:20:26.576                             : en:Chapter 11
  128. 01:29:21.861                             : en:Chapter 12
  129. 01:36:05.056                             : en:Chapter 13
  130. 01:45:08.516                             : en:Chapter 14
  131. 01:53:35.773                             : en:Chapter 15
  132. 02:01:53.771                             : en:Chapter 16
复制代码




                                       
                                       

                                       
                                       
                                       




Nope.2022.2160p.MA.WEB-DL.x265.10bit.SDR.DDP5.1.Atmos-CM.torrent (29.58 KB, 下载次数: 0)
回复

使用道具 举报

懒得打字嘛,点击右侧快捷回复 【右侧内容,后台自定义】
您需要登录后才可以回帖 登录 | 立即注册

本版积分规则

Archiver|手机版|小黑屋| 中国高清网 |网站地图 

GMT+8, 2022-9-28 12:06 , Processed in 0.101353 second(s), 26 queries .

Powered by HDchina X3.4

Copyright 2017-2019©HDchina.All right reserved

返回顶部 联系我们