查看: 129|回复: 1

[恐怖片] 危险乘客 The.Passenger.2021.SPANISH.1080p.BluRay.x264.DD5.1-HANDJOB 6.50GB

[复制链接]
蓝光币
78 枚
发表于 2022-9-13 14:46:37 | 显示全部楼层 |阅读模式
[img][/img]

◎译  名 危险乘客 / The Passenger
◎片  名 La pasajera
◎年  代 2021
◎产  地 西班牙
◎类  别 可骇
◎语  言 西班牙语
◎上映日期 2021-10-08(Sitges Film Festival)
◎IMDb链接 https://www.imdb.com/title/tt12678146/
◎豆瓣评分 5.2/10 (172人评价)
◎豆瓣链接 https://movie.douban.com/subject/35315931/
◎片  长 90分钟
◎导  演 Raúl Cerezo Raúl Cerezo (id:1054083)
◎编  剧 Luis Sánchez Polack Luis Sánchez Polack (id:1157825)
       哈维尔·艾塔尼 Javier Echániz (id:1334170)
       Raúl Cerezo Raúl Cerezo (id:1054083)
◎简  介

  The occupants of a van transporting a wounded excursionist have to avoid sitting next to her during the trip.
  1. Video
  2. ID                                       : 1
  3. Format                                   : AVC
  4. Format/Info                              : Advanced Video Codec
  5. Format profile                           : [email protected]
  6. Format settings                          : CABAC / 5 Ref Frames
  7. Format settings, CABAC                   : Yes
  8. Format settings, Reference frames        : 5 frames
  9. Codec ID                                 : V_MPEG4/ISO/AVC
  10. Duration                                 : 1 h 30 min
  11. Bit rate                                 : 9 621 kb/s
  12. Width                                    : 1 920 pixels
  13. Height                                   : 804 pixels
  14. Display aspect ratio                     : 2.40:1
  15. Frame rate mode                          : Constant
  16. Frame rate                               : 23.976 (24000/1001/189150) FPS
  17. Color space                              : YUV
  18. Chroma subsampling                       : 4:2:0
  19. Bit depth                                : 8 bits
  20. Scan type                                : Progressive
  21. Bits/(Pixel*Frame)                       : 0.260
  22. Stream size                              : 6.09 GiB (94%)
  23. Writing library                          : x264 core 164 r3065 ae03d92
  24. Encoding settings                        : cabac=1 / ref=5 / deblock=1:-3:-3 / analyse=0x3:0x133 / me=umh / subme=10 / psy=1 / psy_rd=1.00:0.00 / mixed_ref=1 / me_range=32 / chroma_me=1 / trellis=2 / 8x8dct=1 / cqm=0 / deadzone=21,11 / fast_pskip=0 / chroma_qp_offset=-2 / threads=25 / lookahead_threads=6 / sliced_threads=0 / nr=0 / decimate=0 / interlaced=0 / bluray_compat=0 / constrained_intra=0 / bframes=16 / b_pyramid=2 / b_adapt=2 / b_bias=0 / direct=3 / weightb=1 / open_gop=0 / weightp=2 / keyint=240 / keyint_min=24 / scenecut=40 / intra_refresh=0 / rc_lookahead=60 / rc=crf / mbtree=0 / crf=14.0 / qcomp=0.60 / qpmin=0 / qpmax=69 / qpstep=4 / vbv_maxrate=62500 / vbv_bufsize=78125 / crf_max=0.0 / nal_hrd=none / filler=0 / ip_ratio=1.40 / pb_ratio=1.30 / aq=2:1.00
  25. Default                                  : Yes
  26. Forced                                   : No
  27. Color range                              : Limited
  28. Color primaries                          : BT.709
  29. Transfer characteristics                 : BT.709
  30. Matrix coefficients                      : BT.709
  31. Audio
  32. ID                                       : 2
  33. Format                                   : AC-3
  34. Format/Info                              : Audio Coding 3
  35. Commercial name                          : Dolby Digital
  36. Codec ID                                 : A_AC3
  37. Duration                                 : 1 h 30 min
  38. Bit rate mode                            : Constant
  39. Bit rate                                 : 640 kb/s
  40. Channel(s)                               : 6 channels
  41. Channel layout                           : L R C LFE Ls Rs
  42. Sampling rate                            : 48.0 kHz
  43. Frame rate                               : 31.250 FPS (1536 SPF)
  44. Compression mode                         : Lossy
  45. Stream size                              : 415 MiB (6%)
  46. Language                                 : Spanish
  47. Service kind                             : Complete Main
  48. Default                                  : Yes
  49. Forced                                   : No
  50. Text
  51. ID                                       : 3
  52. Format                                   : UTF-8
  53. Codec ID                                 : S_TEXT/UTF8
  54. Codec ID/Info                            : UTF-8 Plain Text
  55. Duration                                 : 1 h 28 min
  56. Bit rate                                 : 39 b/s
  57. Frame rate                               : 0.172 FPS
  58. Count of elements                        : 911
  59. Stream size                              : 25.4 KiB (0%)
  60. Language                                 : English
  61. Default                                  : Yes
  62. Forced                                   : No
  63. Menu
  64. 00:00:00.000                             : en:Chapter 1
  65. 00:08:29.843                             : en:Chapter 2
  66. 00:16:15.725                             : en:Chapter 3
  67. 00:24:33.263                             : en:Chapter 4
  68. 00:36:40.073                             : en:Chapter 5
  69. 00:43:18.679                             : en:Chapter 6
  70. 00:46:26.367                             : en:Chapter 7
  71. 00:52:52.211                             : en:Chapter 8
  72. 00:57:31.531                             : en:Chapter 9
  73. 01:07:56.739                             : en:Chapter 10
  74. 01:15:41.912                             : en:Chapter 11
  75. 01:21:39.144                             : en:Chapter 12
复制代码




                                       
                                       

                                       
                                       
                                       




The.Passenger.2021.SPANISH.1080p.BluRay.x264.DD5.1-HANDJOB.torrent (16.88 KB, 下载次数: 1)
回复

使用道具 举报

蓝光币
0 枚
发表于 6 天前 | 显示全部楼层

这个帖子不回对不起自己!我想我是一天也不能离开中国高清电影网
回复

使用道具 举报

懒得打字嘛,点击右侧快捷回复 【右侧内容,后台自定义】
您需要登录后才可以回帖 登录 | 立即注册

本版积分规则

Archiver|手机版|小黑屋| 中国高清网 |网站地图 

GMT+8, 2023-1-29 23:37 , Processed in 0.089032 second(s), 26 queries .

Powered by HDchina X3.4

Copyright 2017-2019©HDchina.All right reserved

返回顶部 联系我们