查看: 121|回复: 3

[2160p] 静水城 Stillwater.2021.2160p.MA.WEB-DL.x265.10bit.HDR.DTS-HD.MA.5.1-NOGRP 27.95GB

[复制链接]
蓝光币
44 枚
发表于 2022-9-2 18:22:14 | 显示全部楼层 |阅读模式
[img][/img]

◎标  题 静水城
◎译  名 静水 / 斯蒂尔沃特 / 止水
◎片  名 Stillwater
◎年  代 2021
◎产  地 美国
◎类  别 剧情 / 惊悚 / 犯罪
◎语  言 英语
◎上映日期 2021-07-08(戛纳电影节) / 2021-07-30(美国)
◎IMDb评分 6.6/10 (28638人评价)
◎IMDb链接 https://www.imdb.com/title/tt10696896/
◎豆瓣评分 7.1/10 (9482人评价)
◎豆瓣链接 https://movie.douban.com/subject/34614665/
◎片  长 139分钟
◎导  演 汤姆·麦卡锡 Tom McCarthy
◎编  剧 汤姆·麦卡锡 Tom McCarthy
       马库斯·辛奇 Marcus Hinchey
       托马斯·彼得葛恩 Thomas Bidegain
       诺亚·德勃雷 Noé Debré
◎演  员 马特·达蒙 Matt Damon
       卡米尔·科坦 Camille Cottin
       阿比盖尔·布雷斯林 Abigail Breslin
       利鲁·肖沃 Lilou Siauvaud
       狄安娜·杜纳甘 Deanna Dunagan
       伊迪尔·阿祖格利 Idir Azougli
       安娜·勒尼 Anne Le Ny
       茂萨·马斯克里 Moussa Maaskri
       伊莎贝尔·塔纳克 Isabelle Tanakil
       奈德拉·阿亚迪 Naidra Ayadi
       吉尔伯特·特拉尼亚 Gilbert Traina
       威廉·纳迪兰 William Nadylam
       沙扎德·拉蒂夫 Shazad Latif
       米歇尔‧邦波 Michel Bompoil
       莎拉·布鲁克斯 Sarah Brooks
       埃里克·斯达克 Eric Starkey
       罗伯特·皮特斯 Robert Peters
       Olivier Cruveiller Olivier Cruveiller
◎标  签 剧情 / 美国 / 犯罪 / 2021 / 悬疑 / 欧美 / 电影 / 惊悚
◎简  介

  影片围绕一个来自俄克拉荷马州的美国石油钻井平台钻工比尔(达蒙饰)展开。他不能不前往马赛,造访他久未碰面却锒铛入狱的女儿(布雷斯林饰),他的女儿坚称并没有犯下谋杀罪。面临说话的障碍、文化的差别,以及复杂的法令制度,比尔决意孤注一掷拯救他的女儿。而在这个进程中,他与一位当地的女性和她的小女儿建立了友谊,也起头了小我的摸索之旅,并获得了更大的归属感。
  1. Video
  2. ID                                       : 1
  3. Format                                   : HEVC
  4. Format/Info                              : High Efficiency Video Coding
  5. Format profile                           : Main [email protected]@High
  6. HDR format                               : SMPTE ST 2086, HDR10 compatible
  7. Codec ID                                 : V_MPEGH/ISO/HEVC
  8. Duration                                 : 2 h 19 min
  9. Bit rate                                 : 24.7 Mb/s
  10. Width                                    : 3 840 pixels
  11. Height                                   : 2 160 pixels
  12. Display aspect ratio                     : 16:9
  13. Frame rate mode                          : Constant
  14. Frame rate                               : 23.976 (24000/1001/189150) FPS
  15. Color space                              : YUV
  16. Chroma subsampling                       : 4:2:0 (Type 2)
  17. Bit depth                                : 10 bits
  18. Bits/(Pixel*Frame)                       : 0.124
  19. Stream size                              : 24.0 GiB (86%)
  20. Default                                  : No
  21. Forced                                   : No
  22. Color range                              : Limited
  23. Color primaries                          : BT.2020
  24. Transfer characteristics                 : PQ
  25. Matrix coefficients                      : BT.2020 non-constant
  26. Mastering display color primaries        : BT.2020
  27. Mastering display luminance              : min: 0.0050 cd/m2, max: 1000 cd/m2
  28. Maximum Content Light Level              : 987 cd/m2
  29. Maximum Frame-Average Light Level        : 137 cd/m2
  30. Audio #1
  31. ID                                       : 2
  32. Format                                   : DTS XLL
  33. Format/Info                              : Digital Theater Systems
  34. Commercial name                          : DTS-HD Master Audio
  35. Codec ID                                 : A_DTS
  36. Duration                                 : 2 h 18 min
  37. Bit rate mode                            : Variable
  38. Bit rate                                 : 3 412 kb/s
  39. Channel(s)                               : 6 channels
  40. Channel layout                           : C L R Ls Rs LFE
  41. Sampling rate                            : 48.0 kHz
  42. Frame rate                               : 93.750 FPS (512 SPF)
  43. Bit depth                                : 24 bits
  44. Compression mode                         : Lossless
  45. Delay relative to video                  : 23 s 424 ms
  46. Stream size                              : 3.31 GiB (12%)
  47. Title                                    : DTS-HD Master Audio / 5.1 / 48 kHz / 3412 kbps / 24-bit
  48. Language                                 : English
  49. Default                                  : Yes
  50. Forced                                   : No
  51. Audio #2
  52. ID                                       : 3
  53. Format                                   : AC-3
  54. Format/Info                              : Audio Coding 3
  55. Commercial name                          : Dolby Digital
  56. Codec ID                                 : A_AC3
  57. Duration                                 : 2 h 19 min
  58. Bit rate mode                            : Constant
  59. Bit rate                                 : 640 kb/s
  60. Channel(s)                               : 6 channels
  61. Channel layout                           : L R C LFE Ls Rs
  62. Sampling rate                            : 48.0 kHz
  63. Frame rate                               : 31.250 FPS (1536 SPF)
  64. Compression mode                         : Lossy
  65. Stream size                              : 638 MiB (2%)
  66. Title                                    : DD 5.1
  67. Language                                 : English
  68. Service kind                             : Complete Main
  69. Default                                  : No
  70. Forced                                   : No
  71. Text #1
  72. ID                                       : 4
  73. Format                                   : UTF-8
  74. Codec ID                                 : S_TEXT/UTF8
  75. Codec ID/Info                            : UTF-8 Plain Text
  76. Duration                                 : 2 h 1 min
  77. Bit rate                                 : 10 b/s
  78. Frame rate                               : 0.036 FPS
  79. Count of elements                        : 264
  80. Stream size                              : 9.21 KiB (0%)
  81. Title                                    : Forced
  82. Language                                 : English
  83. Default                                  : No
  84. Forced                                   : Yes
  85. Text #2
  86. ID                                       : 5
  87. Format                                   : UTF-8
  88. Codec ID                                 : S_TEXT/UTF8
  89. Codec ID/Info                            : UTF-8 Plain Text
  90. Duration                                 : 2 h 10 min
  91. Bit rate                                 : 53 b/s
  92. Frame rate                               : 0.251 FPS
  93. Count of elements                        : 1963
  94. Stream size                              : 50.7 KiB (0%)
  95. Language                                 : English
  96. Default                                  : Yes
  97. Forced                                   : No
  98. Text #3
  99. ID                                       : 6
  100. Format                                   : UTF-8
  101. Codec ID                                 : S_TEXT/UTF8
  102. Codec ID/Info                            : UTF-8 Plain Text
  103. Duration                                 : 2 h 18 min
  104. Bit rate                                 : 58 b/s
  105. Frame rate                               : 0.281 FPS
  106. Count of elements                        : 2340
  107. Stream size                              : 59.8 KiB (0%)
  108. Title                                    : SDH
  109. Language                                 : English
  110. Default                                  : No
  111. Forced                                   : No
  112. Text #4
  113. ID                                       : 7
  114. Format                                   : UTF-8
  115. Codec ID                                 : S_TEXT/UTF8
  116. Codec ID/Info                            : UTF-8 Plain Text
  117. Duration                                 : 2 h 9 min
  118. Bit rate                                 : 53 b/s
  119. Frame rate                               : 0.233 FPS
  120. Count of elements                        : 1814
  121. Stream size                              : 50.9 KiB (0%)
  122. Title                                    : Latin American
  123. Language                                 : Spanish
  124. Default                                  : No
  125. Forced                                   : No
  126. Menu
  127. 00:00:23.424                             : en:Chapter 01
  128. 00:08:13.852                             : en:Chapter 02
  129. 00:13:20.367                             : en:Chapter 03
  130. 00:22:40.426                             : en:Chapter 04
  131. 00:32:47.283                             : en:Chapter 05
  132. 00:38:08.979                             : en:Chapter 06
  133. 00:44:25.814                             : en:Chapter 07
  134. 00:49:28.950                             : en:Chapter 08
  135. 00:58:14.475                             : en:Chapter 09
  136. 01:03:42.636                             : en:Chapter 10
  137. 01:08:45.147                             : en:Chapter 11
  138. 01:16:29.360                             : en:Chapter 12
  139. 01:25:27.398                             : en:Chapter 13
  140. 01:32:39.705                             : en:Chapter 14
  141. 01:39:42.335                             : en:Chapter 15
  142. 01:45:50.620                             : en:Chapter 16
  143. 01:52:07.121                             : en:Chapter 17
  144. 02:01:20.549                             : en:Chapter 18
  145. 02:05:54.823                             : en:Chapter 19
  146. 02:12:31.928                             : en:Chapter 20
复制代码




                                       
                                       

                                       
                                       
                                       




Stillwater.2021.2160p.MA.WEB-DL.x265.10bit.HDR.DTS-HD.MA.5.1-NOGRP.torrent (35.59 KB, 下载次数: 5)
回复

使用道具 举报

蓝光币
56 枚
QQ
发表于 7 天前 | 显示全部楼层

既然你诚信诚意的推荐了,那我就勉为其难的看看吧!中国高清电影网不走平凡路。
回复

使用道具 举报

蓝光币
2332 枚
发表于 7 天前 | 显示全部楼层

这东西我收了!谢谢楼主!中国高清电影网真好!
回复

使用道具 举报

蓝光币
0 枚
QQ
发表于 6 天前 | 显示全部楼层

Q   195 444 5505 售  站~~街   会~~所  学  妹  各   种    类  型   资  料

Q   195 444 5505 售  站~~街   会~~所  学  妹  各   种    类  型   资  料

Q   195 444 5505 售  站~~街   会~~所  学  妹  各   种    类  型   资  料

Q   195 444 5505 售  站~~街   会~~所  学  妹  各   种    类  型   资  料
回复

使用道具 举报

懒得打字嘛,点击右侧快捷回复 【右侧内容,后台自定义】
您需要登录后才可以回帖 登录 | 立即注册

本版积分规则

Archiver|手机版|小黑屋| 中国高清网 |网站地图 

GMT+8, 2022-9-28 12:07 , Processed in 0.105302 second(s), 27 queries .

Powered by HDchina X3.4

Copyright 2017-2019©HDchina.All right reserved

返回顶部 联系我们