查看: 20|回复: 0

[2160p] 48小时 48.Hrs.1982.2160p.WEB-DL.DD5.1.DV.MP4.x265-DVSUX 17.09GB

[复制链接]
蓝光币
28 枚
发表于 2022-8-6 12:15:01 | 显示全部楼层 |阅读模式


◎标  题 48小时
◎译  名 特赦48小时 / 四十八小时
◎片  名 48 Hrs.
◎年  代 1982
◎产  地 美国
◎类  别 剧情 / 笑剧 / 行动 / 惊悚 / 犯罪
◎语  言 英语
◎上映日期 1982-12-08(美国)
◎IMDb评分 6.9/10 (74979人评价)
◎IMDb链接 https://www.imdb.com/title/tt0083511/
◎豆瓣评分 6.5/10 (387人评价)
◎豆瓣链接 https://movie.douban.com/subject/1301780/
◎片  长 96 分钟
◎导  演 沃尔特·希尔 Walter Hill
◎编  剧 罗杰·斯波蒂斯伍德 Roger Spottiswoode
       沃尔特·希尔 Walter Hill
       拉里·格罗斯 Larry Gross
       斯蒂芬·E.德·索萨 Steven E. de Souza
◎演  员 尼克·诺特 Nick Nolte
       艾迪·墨菲 Eddie Murphy
       安妮特·奥图 Annette O'Toole
       弗兰克·麦克雷 Frank McRae
       詹姆斯·瑞马尔 James Remar
       大卫·帕特里克·凯利 David Patrick Kelly
       索尼·兰哈姆 Sonny Landham
       布里翁·詹姆斯 Brion James
       Kerry Sherman Kerry Sherman
       乔纳森·班克斯 Jonathan Banks
       詹姆斯·基恩 James Keane
       Margot Rose Margot Rose
       丹尼斯·克罗斯比 Denise Crosby
       Olivia Brown Olivia Brown
       Todd Allen Todd Allen
       Bill Dearth Bill Dearth
       内德·道德 Ned Dowd
       吉姆·海尼 Jim Haynie
       杰克·唐蒂博 Jack Thibeau
       桑迪·马丁 Sandy Martin
       Matt Landers Matt Landers
       皮特·杰森 Peter Jason
       克里斯·马尔基 Chris Mulkey
       马塞利诺·桑切斯 Marcelino Sánchez
       Bennie E. Dobbins Bennie E. Dobbins
       Begonya Plaza Begonya Plaza
       罗伊德·卡特莱特 Loyd Catlett
       里德·克鲁克香克斯 Reid Cruickshanks
       R.D. Call R.D. Call
       布伦达·维纳斯 Brenda Venus
       约翰·丹尼斯·约翰斯顿 John Dennis Johnston
       Jack Lightsy Jack Lightsy
       Luis Contreras Luis Contreras
       欧拉·蕾 Ola Ray
       Fritz Ford Fritz Ford
       Kevin O'Neal Kevin O'Neal
       Walter Scott Walter Scott
       John Hauk John Hauk
       劳伦斯·戈登 Lawrence Gordon
       乔·西尔沃 Joel Silver
       詹姆斯·霍纳 James Horner
       Ric Waite Ric Waite
       比利·韦伯 Billy Weber
       马克·华纳 Mark Warner
       Freeman A. Davies Freeman A. Davies
       Judith Holstra Judith Holstra
       约翰·瓦隆 John Vallone
       Richard C. Goddard Richard C. Goddard
       玛丽莲·万斯 Marilyn Vance
       爱德华·F.·恩里克斯 Edouard F. Henriques
       迈克尔·杰曼 Michael Germain
       David Sosna David Sosna
◎标  签 美国 / 笑剧 / 行动 / 犯罪 / 1982 / 警匪 / 美国电影 / 艾迪·墨菲
◎简  介

  杰克凯斯为三藩市一位资深警探,从21岁加入警界以来一向未能有所表示。雷吉汉蒙德为黑人区一位惯犯,从15岁起起头犯案累累。巧的是两人都想力图改变现况,而更巧的是两人居然在同时候萍水重逢,是以激发了一场争斗。                                       
                                    重刑犯艾伯特·刚茨在他的老同伴比利·拜尔的帮助下成功逃狱,他们立即杀死了自己的朋友亨利·王,用假名字住进了三藩市的瓦尔登旅店。年轻干探杰克·盖茨(Nick Nolte饰)郁不得志,酗酒成性。此番受命与同事VanZant 和Algren入住瓦尔登旅店,观察名叫G. P. Polson的人,不想VanZant 和Algren被艾伯特所害。杰克欲为同事报仇,劝服下属Haden让他自力办案。杰克到牢狱探视艾伯特畴前的同伴雷吉·汉蒙德(Eddie Murphy饰),以减刑为由,希望雷吉帮助他抓捕艾伯特和比利,雷吉委曲答应,但杰克只能将其带出牢狱48小时,更糟...
  1. Video
  2. ID                                       : 1
  3. Format                                   : HEVC
  4. Format/Info                              : High Efficiency Video Coding
  5. Format profile                           : Main [email protected]@High
  6. HDR format                               : Dolby Vision, Version 1.0, dvhe.05.06, BL+RPU
  7. Codec ID                                 : dvhe
  8. Codec ID/Info                            : High Efficiency Video Coding with Dolby Vision
  9. Duration                                 : 1 h 36 min
  10. Bit rate                                 : 24.9 Mb/s
  11. Width                                    : 3 840 pixels
  12. Height                                   : 2 080 pixels
  13. Original height                          : 2 076 pixels
  14. Display aspect ratio                     : 1.85:1
  15. Original display aspect ratio            : 1.85:1
  16. Frame rate mode                          : Constant
  17. Frame rate                               : 23.976 (24000/1001/189150) FPS
  18. Color space                              : YUV
  19. Chroma subsampling                       : 4:2:0
  20. Bit depth                                : 10 bits
  21. Bits/(Pixel*Frame)                       : 0.130
  22. Stream size                              : 16.8 GiB (98%)
  23. Default                                  : Yes
  24. Alternate group                          : 1
  25. Encoded date                             : UTC 2022-08-05 13:11:27
  26. Tagged date                              : UTC 2022-08-05 13:13:03
  27. Codec configuration box                  : hvcC+dvcC

  28. Audio
  29. ID                                       : 2
  30. Format                                   : AC-3
  31. Format/Info                              : Audio Coding 3
  32. Commercial name                          : Dolby Digital
  33. Codec ID                                 : ac-3
  34. Duration                                 : 1 h 36 min
  35. Bit rate mode                            : Constant
  36. Bit rate                                 : 384 kb/s
  37. Maximum bit rate                         : 406 kb/s
  38. Channel(s)                               : 6 channels
  39. Channel layout                           : L R C LFE Ls Rs
  40. Sampling rate                            : 48.0 kHz
  41. Frame rate                               : 31.250 FPS (1536 SPF)
  42. Compression mode                         : Lossy
  43. Stream size                              : 265 MiB (2%)
  44. Title                                    : English
  45. Language                                 : English
  46. Service kind                             : Complete Main
  47. Default                                  : Yes
  48. Alternate group                          : 1
  49. Tagged date                              : UTC 2022-08-05 13:13:03

  50. Text #1
  51. ID                                       : 3
  52. Format                                   : Timed Text
  53. Codec ID                                 : tx3g
  54. Duration                                 : 1 h 32 min
  55. Bit rate mode                            : Variable
  56. Bit rate                                 : 44 b/s
  57. Frame rate                               : 0.231 FPS
  58. Stream size                              : 29.5 KiB (0%)
  59. Title                                    : English
  60. Language                                 : English
  61. Forced                                   : No
  62. Encoded date                             : UTC 2022-08-05 13:13:02
  63. Tagged date                              : UTC 2022-08-05 13:13:03

  64. Text #2
  65. ID                                       : 4
  66. Format                                   : Timed Text
  67. Codec ID                                 : tx3g
  68. Duration                                 : 1 h 32 min
  69. Bit rate mode                            : Variable
  70. Bit rate                                 : 64 b/s
  71. Frame rate                               : 0.428 FPS
  72. Stream size                              : 43.4 KiB (0%)
  73. Title                                    : French
  74. Language                                 : French
  75. Forced                                   : No
  76. Encoded date                             : UTC 2022-08-05 13:13:03
  77. Tagged date                              : UTC 2022-08-05 13:13:03
复制代码




                                       
                                       

                                       
                                       
                                       




48.Hrs.1982.2160p.WEB-DL.DD5.1.DV.MP4.x265-DVSUX.torrent (21.98 KB, 下载次数: 0)
回复

使用道具 举报

懒得打字嘛,点击右侧快捷回复 【右侧内容,后台自定义】
您需要登录后才可以回帖 登录 | 立即注册

本版积分规则

Archiver|手机版|小黑屋| 中国高清网 |网站地图 

GMT+8, 2022-8-19 13:24 , Processed in 0.100196 second(s), 26 queries .

Powered by HDchina X3.4

Copyright 2017-2019©HDchina.All right reserved

返回顶部 联系我们