查看: 30|回复: 0

[2160p] 海绵宝宝:营救大冒险 The.SpongeBob.Movie.Sponge.on.the.Run.2020.2160p.WEB-DL.DTS-HD.MA.5.1.DV.MKV.x265-DVSUX 11.99GB

[复制链接]
蓝光币
28 枚
发表于 2022-8-6 09:12:26 | 显示全部楼层 |阅读模式


◎标  题 海绵宝宝:救援大冒险
◎译  名 海绵宝宝3 / 海绵宝宝:奔驰吧(台) / 海绵宝宝:吃紧脚走佬(港) / SpongeBob Squarepants 3 / Spongebob Movie 3 / It's a Wonderful Sponge
◎片  名 The SpongeBob Movie: Sponge on the Run
◎年  代 2020
◎产  地 美国 / 韩国 / 墨西哥 / 日本 / 西班牙
◎类  别 笑剧 / 动画 / 冒险
◎语  言 英语 / 西班牙语 / 阿拉伯语
◎上映日期 2020-11-06(中国大陆收集) / 2020-08-14(加拿大)
◎IMDb评分 6/10 (15943人评价)
◎IMDb链接 https://www.imdb.com/title/tt4823776/
◎豆瓣评分 6.1/10 (10350人评价)
◎豆瓣链接 https://movie.douban.com/subject/26662159/
◎片  长 91分钟
◎导  演 蒂姆·希尔 Tim Hill
◎编  剧 蒂姆·希尔 Tim Hill
       乔纳森·阿贝尔 Jonathan Aibel
       格伦·伯杰 Glenn Berger
       史蒂芬·海伦伯格 Stephen Hillenburg
       保罗·提比特 Paul Tibbitt
◎演  员 基努·里维斯 Keanu Reeves
       奥卡菲娜 Awkwafina
       克兰西·布朗 Clancy Brown
       汤姆·肯尼 Tom Kenny
       比尔·法格巴克 Bill Fagerbakke
       罗里·艾伦 Lori Alan
       劳伦斯师长 Mr. Lawrence
       玛丽·乔·卡特利特 Mary Jo Catlett
       罗德格尔·邦帕斯 Rodger Bumpass
       吉尔·塔利 Jill Talley
       卡罗琳·劳伦斯 Carolyn Lawrence
       维罗妮卡·阿利奇诺 Veronica Alicino
       汉斯·季默 Hans Zimmer
       史蒂夫·马扎罗 Steve Mazzaro
        Nick Kenway Nick Kenway
       Ineke Majoor   Ineke Majoor
◎标  签 海绵宝宝 / 动画 / 笑剧 / 美国 / 2020 / 3D / 派拉蒙 / Nickelodeon
◎简  介

  《海绵宝宝:救援大冒险》报告了海绵宝宝心爱的宠物小蜗被绑架后,海绵宝宝和派大星前往失落的大西洋城展开救援冒险的故事。在这场布满危险又妙趣横生的救援行动中,海绵宝宝和他的朋友们用现实行动证实了友谊的气力无穷大!
  1. Video
  2. ID                                       : 1
  3. Format                                   : HEVC
  4. Format/Info                              : High Efficiency Video Coding
  5. Format profile                           : Main [email protected]@High
  6. HDR format                               : Dolby Vision, Version 1.0, dvhe.05.06, BL+RPU
  7. Codec ID                                 : V_MPEGH/ISO/HEVC
  8. Duration                                 : 1 h 31 min
  9. Bit rate                                 : 14.2 Mb/s
  10. Width                                    : 3 840 pixels
  11. Height                                   : 2 076 pixels
  12. Display aspect ratio                     : 1.85:1
  13. Frame rate mode                          : Constant
  14. Frame rate                               : 23.976 (24000/1001/189150) FPS
  15. Color space                              : YUV
  16. Chroma subsampling                       : 4:2:0
  17. Bit depth                                : 10 bits
  18. Bits/(Pixel*Frame)                       : 0.074
  19. Stream size                              : 9.06 GiB (76%)
  20. Default                                  : Yes
  21. Forced                                   : No
  22. Audio #1
  23. ID                                       : 2
  24. Format                                   : DTS XLL
  25. Format/Info                              : Digital Theater Systems
  26. Commercial name                          : DTS-HD Master Audio
  27. Codec ID                                 : A_DTS
  28. Duration                                 : 1 h 31 min
  29. Bit rate mode                            : Variable
  30. Bit rate                                 : 3 660 kb/s
  31. Channel(s)                               : 6 channels
  32. Channel layout                           : C L R Ls Rs LFE
  33. Sampling rate                            : 48.0 kHz
  34. Frame rate                               : 93.750 FPS (512 SPF)
  35. Bit depth                                : 24 bits
  36. Compression mode                         : Lossless
  37. Delay relative to video                  : 8 ms
  38. Stream size                              : 2.34 GiB (20%)
  39. Title                                    : DTS-HD MA 5.1
  40. Language                                 : English
  41. Default                                  : Yes
  42. Forced                                   : No
  43. Audio #2
  44. ID                                       : 3
  45. Format                                   : E-AC-3 JOC
  46. Format/Info                              : Enhanced AC-3 with Joint Object Coding
  47. Commercial name                          : Dolby Digital Plus with Dolby Atmos
  48. Codec ID                                 : A_EAC3
  49. Duration                                 : 1 h 31 min
  50. Bit rate mode                            : Constant
  51. Bit rate                                 : 768 kb/s
  52. Channel(s)                               : 6 channels
  53. Channel layout                           : L R C LFE Ls Rs
  54. Sampling rate                            : 48.0 kHz
  55. Frame rate                               : 31.250 FPS (1536 SPF)
  56. Compression mode                         : Lossy
  57. Stream size                              : 503 MiB (4%)
  58. Title                                    : DDP 5.1
  59. Language                                 : English
  60. Service kind                             : Complete Main
  61. Default                                  : No
  62. Forced                                   : No
  63. Complexity index                         : 16
  64. Number of dynamic objects                : 15
  65. Bed channel count                        : 1 channel
  66. Bed channel configuration                : LFE
  67. Text #1
  68. ID                                       : 4
  69. Format                                   : UTF-8
  70. Codec ID                                 : S_TEXT/UTF8
  71. Codec ID/Info                            : UTF-8 Plain Text
  72. Duration                                 : 1 h 22 min
  73. Bit rate                                 : 66 b/s
  74. Frame rate                               : 0.264 FPS
  75. Count of elements                        : 1299
  76. Stream size                              : 40.1 KiB (0%)
  77. Title                                    : English
  78. Language                                 : English
  79. Default                                  : Yes
  80. Forced                                   : No
  81. Text #2
  82. ID                                       : 5
  83. Format                                   : UTF-8
  84. Codec ID                                 : S_TEXT/UTF8
  85. Codec ID/Info                            : UTF-8 Plain Text
  86. Duration                                 : 1 h 29 min
  87. Bit rate                                 : 73 b/s
  88. Frame rate                               : 0.315 FPS
  89. Count of elements                        : 1697
  90. Stream size                              : 48.1 KiB (0%)
  91. Title                                    : English CC
  92. Language                                 : English
  93. Default                                  : No
  94. Forced                                   : No
  95. Text #3
  96. ID                                       : 6
  97. Format                                   : UTF-8
  98. Codec ID                                 : S_TEXT/UTF8
  99. Codec ID/Info                            : UTF-8 Plain Text
  100. Duration                                 : 1 h 31 min
  101. Bit rate                                 : 49 b/s
  102. Frame rate                               : 0.238 FPS
  103. Count of elements                        : 1301
  104. Stream size                              : 32.7 KiB (0%)
  105. Title                                    : Danish
  106. Language                                 : Danish
  107. Default                                  : No
  108. Forced                                   : No
  109. Text #4
  110. ID                                       : 7
  111. Format                                   : UTF-8
  112. Codec ID                                 : S_TEXT/UTF8
  113. Codec ID/Info                            : UTF-8 Plain Text
  114. Duration                                 : 1 h 31 min
  115. Bit rate                                 : 54 b/s
  116. Frame rate                               : 0.245 FPS
  117. Count of elements                        : 1337
  118. Stream size                              : 36.5 KiB (0%)
  119. Title                                    : Finnish
  120. Language                                 : Finnish
  121. Default                                  : No
  122. Forced                                   : No
  123. Text #5
  124. ID                                       : 8
  125. Format                                   : UTF-8
  126. Codec ID                                 : S_TEXT/UTF8
  127. Codec ID/Info                            : UTF-8 Plain Text
  128. Duration                                 : 1 h 31 min
  129. Bit rate                                 : 59 b/s
  130. Frame rate                               : 0.231 FPS
  131. Count of elements                        : 1264
  132. Stream size                              : 39.7 KiB (0%)
  133. Title                                    : Korean
  134. Language                                 : Korean
  135. Default                                  : No
  136. Forced                                   : No
  137. Text #6
  138. ID                                       : 9
  139. Format                                   : UTF-8
  140. Codec ID                                 : S_TEXT/UTF8
  141. Codec ID/Info                            : UTF-8 Plain Text
  142. Duration                                 : 1 h 31 min
  143. Bit rate                                 : 57 b/s
  144. Frame rate                               : 0.244 FPS
  145. Count of elements                        : 1335
  146. Stream size                              : 38.5 KiB (0%)
  147. Title                                    : Norwegian
  148. Language                                 : Norwegian
  149. Default                                  : No
  150. Forced                                   : No
  151. Text #7
  152. ID                                       : 10
  153. Format                                   : UTF-8
  154. Codec ID                                 : S_TEXT/UTF8
  155. Codec ID/Info                            : UTF-8 Plain Text
  156. Duration                                 : 1 h 31 min
  157. Bit rate                                 : 59 b/s
  158. Frame rate                               : 0.244 FPS
  159. Count of elements                        : 1333
  160. Stream size                              : 39.6 KiB (0%)
  161. Title                                    : Swedish
  162. Language                                 : Swedish
  163. Default                                  : No
  164. Forced                                   : No
  165. Text #8
  166. ID                                       : 11
  167. Format                                   : PGS
  168. Muxing mode                              : zlib
  169. Codec ID                                 : S_HDMV/PGS
  170. Codec ID/Info                            : Picture based subtitle format used on BDs/HD-DVDs
  171. Duration                                 : 1 h 22 min
  172. Bit rate                                 : 41.8 kb/s
  173. Frame rate                               : 0.527 FPS
  174. Count of elements                        : 2598
  175. Stream size                              : 24.5 MiB (0%)
  176. Language                                 : English
  177. Default                                  : No
  178. Forced                                   : No
  179. Text #9
  180. ID                                       : 12
  181. Format                                   : PGS
  182. Muxing mode                              : zlib
  183. Codec ID                                 : S_HDMV/PGS
  184. Codec ID/Info                            : Picture based subtitle format used on BDs/HD-DVDs
  185. Duration                                 : 1 h 29 min
  186. Bit rate                                 : 48.0 kb/s
  187. Frame rate                               : 0.616 FPS
  188. Count of elements                        : 3318
  189. Stream size                              : 30.8 MiB (0%)
  190. Title                                    : SDH
  191. Language                                 : English
  192. Default                                  : No
  193. Forced                                   : No
  194. Text #10
  195. ID                                       : 13
  196. Format                                   : PGS
  197. Muxing mode                              : zlib
  198. Codec ID                                 : S_HDMV/PGS
  199. Codec ID/Info                            : Picture based subtitle format used on BDs/HD-DVDs
  200. Duration                                 : 1 h 31 min
  201. Bit rate                                 : 31.1 kb/s
  202. Frame rate                               : 0.476 FPS
  203. Count of elements                        : 2602
  204. Stream size                              : 20.3 MiB (0%)
  205. Language                                 : Danish
  206. Default                                  : No
  207. Forced                                   : No
  208. Text #11
  209. ID                                       : 14
  210. Format                                   : PGS
  211. Muxing mode                              : zlib
  212. Codec ID                                 : S_HDMV/PGS
  213. Codec ID/Info                            : Picture based subtitle format used on BDs/HD-DVDs
  214. Duration                                 : 1 h 31 min
  215. Bit rate                                 : 34.6 kb/s
  216. Frame rate                               : 0.489 FPS
  217. Count of elements                        : 2674
  218. Stream size                              : 22.5 MiB (0%)
  219. Language                                 : Finnish
  220. Default                                  : No
  221. Forced                                   : No
  222. Text #12
  223. ID                                       : 15
  224. Format                                   : PGS
  225. Muxing mode                              : zlib
  226. Codec ID                                 : S_HDMV/PGS
  227. Codec ID/Info                            : Picture based subtitle format used on BDs/HD-DVDs
  228. Duration                                 : 1 h 31 min
  229. Bit rate                                 : 31.7 kb/s
  230. Frame rate                               : 0.502 FPS
  231. Count of elements                        : 2744
  232. Stream size                              : 20.6 MiB (0%)
  233. Language                                 : French
  234. Default                                  : No
  235. Forced                                   : No
  236. Text #13
  237. ID                                       : 16
  238. Format                                   : PGS
  239. Muxing mode                              : zlib
  240. Codec ID                                 : S_HDMV/PGS
  241. Codec ID/Info                            : Picture based subtitle format used on BDs/HD-DVDs
  242. Duration                                 : 1 h 31 min
  243. Bit rate                                 : 38.6 kb/s
  244. Frame rate                               : 0.479 FPS
  245. Count of elements                        : 2620
  246. Stream size                              : 25.1 MiB (0%)
  247. Language                                 : German
  248. Default                                  : No
  249. Forced                                   : No
  250. Text #14
  251. ID                                       : 17
  252. Format                                   : PGS
  253. Muxing mode                              : zlib
  254. Codec ID                                 : S_HDMV/PGS
  255. Codec ID/Info                            : Picture based subtitle format used on BDs/HD-DVDs
  256. Duration                                 : 1 h 31 min
  257. Bit rate                                 : 38.1 kb/s
  258. Frame rate                               : 0.453 FPS
  259. Count of elements                        : 2474
  260. Stream size                              : 24.8 MiB (0%)
  261. Language                                 : Italian
  262. Default                                  : No
  263. Forced                                   : No
  264. Text #15
  265. ID                                       : 18
  266. Format                                   : PGS
  267. Muxing mode                              : zlib
  268. Codec ID                                 : S_HDMV/PGS
  269. Codec ID/Info                            : Picture based subtitle format used on BDs/HD-DVDs
  270. Duration                                 : 1 h 22 min
  271. Bit rate                                 : 33.1 kb/s
  272. Frame rate                               : 0.559 FPS
  273. Count of elements                        : 2770
  274. Stream size                              : 19.6 MiB (0%)
  275. Language                                 : Japanese
  276. Default                                  : No
  277. Forced                                   : No
  278. Text #16
  279. ID                                       : 19
  280. Format                                   : PGS
  281. Muxing mode                              : zlib
  282. Codec ID                                 : S_HDMV/PGS
  283. Codec ID/Info                            : Picture based subtitle format used on BDs/HD-DVDs
  284. Duration                                 : 1 h 31 min
  285. Bit rate                                 : 36.1 kb/s
  286. Frame rate                               : 0.487 FPS
  287. Count of elements                        : 2662
  288. Stream size                              : 23.5 MiB (0%)
  289. Language                                 : Norwegian
  290. Default                                  : No
  291. Forced                                   : No
  292. Text #17
  293. ID                                       : 20
  294. Format                                   : PGS
  295. Muxing mode                              : zlib
  296. Codec ID                                 : S_HDMV/PGS
  297. Codec ID/Info                            : Picture based subtitle format used on BDs/HD-DVDs
  298. Duration                                 : 1 h 31 min
  299. Bit rate                                 : 37.0 kb/s
  300. Frame rate                               : 0.487 FPS
  301. Count of elements                        : 2660
  302. Stream size                              : 24.1 MiB (0%)
  303. Title                                    : Castilian
  304. Language                                 : Spanish
  305. Default                                  : No
  306. Forced                                   : No
  307. Text #18
  308. ID                                       : 21
  309. Format                                   : PGS
  310. Muxing mode                              : zlib
  311. Codec ID                                 : S_HDMV/PGS
  312. Codec ID/Info                            : Picture based subtitle format used on BDs/HD-DVDs
  313. Duration                                 : 1 h 31 min
  314. Bit rate                                 : 37.1 kb/s
  315. Frame rate                               : 0.452 FPS
  316. Count of elements                        : 2468
  317. Stream size                              : 24.1 MiB (0%)
  318. Title                                    : Latin American
  319. Language                                 : Spanish
  320. Default                                  : No
  321. Forced                                   : No
  322. Text #19
  323. ID                                       : 22
  324. Format                                   : PGS
  325. Muxing mode                              : zlib
  326. Codec ID                                 : S_HDMV/PGS
  327. Codec ID/Info                            : Picture based subtitle format used on BDs/HD-DVDs
  328. Duration                                 : 1 h 31 min
  329. Bit rate                                 : 36.5 kb/s
  330. Frame rate                               : 0.488 FPS
  331. Count of elements                        : 2666
  332. Stream size                              : 23.8 MiB (0%)
  333. Language                                 : Swedish
  334. Default                                  : No
  335. Forced                                   : No
  336. Menu
  337. 00:00:00.000                             : en:Chapter 01
  338. 00:05:08.683                             : en:Chapter 02
  339. 00:11:35.445                             : en:Chapter 03
  340. 00:15:03.862                             : en:Chapter 04
  341. 00:20:24.265                             : en:Chapter 05
  342. 00:24:45.777                             : en:Chapter 06
  343. 00:31:36.396                             : en:Chapter 07
  344. 00:39:54.310                             : en:Chapter 08
  345. 00:44:41.848                             : en:Chapter 09
  346. 00:52:46.166                             : en:Chapter 10
  347. 00:57:13.725                             : en:Chapter 11
  348. 01:05:12.412                             : en:Chapter 12
  349. 01:12:36.564                             : en:Chapter 13
  350. 01:21:05.699                             : en:Chapter 14
  351. 01:22:49.010                             : en:Chapter 15
复制代码





                                       
                                       

                                       
                                       
                                       




海绵宝宝:救援大冒险 The.SpongeBob.Movie.Sponge.on.the.Run.2020.2160p.WEB-DL.DTS-HD.MA.5.1.DV.MKV.x265-DVSUX 11.99GB

The.SpongeBob.Movie.Sponge.on.the.Run.2020.2160p.WEB-DL.DTS-HD.MA.5.1.DV.MKV.x26.torrent

15.69 KB, 下载次数: 0

回复

使用道具 举报

懒得打字嘛,点击右侧快捷回复 【右侧内容,后台自定义】
您需要登录后才可以回帖 登录 | 立即注册

本版积分规则

Archiver|手机版|小黑屋| 中国高清网 |网站地图 

GMT+8, 2022-8-18 19:53 , Processed in 0.120898 second(s), 26 queries .

Powered by HDchina X3.4

Copyright 2017-2019©HDchina.All right reserved

返回顶部 联系我们