查看: 19|回复: 0

[2160p] 海绵宝宝:营救大冒险 The.SpongeBob.Movie.Sponge.on.the.Run.2020.2160p.WEB-DL.DDP5.1.DV.MP4.x265-DVSUX 9.56GB

[复制链接]
蓝光币
28 枚
发表于 2022-8-6 09:12:19 | 显示全部楼层 |阅读模式


◎标  题 海绵宝宝:救援大冒险
◎译  名 海绵宝宝3 / 海绵宝宝:奔驰吧(台) / 海绵宝宝:吃紧脚走佬(港) / SpongeBob Squarepants 3 / Spongebob Movie 3 / It's a Wonderful Sponge
◎片  名 The SpongeBob Movie: Sponge on the Run
◎年  代 2020
◎产  地 美国 / 韩国 / 墨西哥 / 日本 / 西班牙
◎类  别 笑剧 / 动画 / 冒险
◎语  言 英语 / 西班牙语 / 阿拉伯语
◎上映日期 2020-11-06(中国大陆收集) / 2020-08-14(加拿大)
◎IMDb评分 6/10 (15943人评价)
◎IMDb链接 https://www.imdb.com/title/tt4823776/
◎豆瓣评分 6.1/10 (10350人评价)
◎豆瓣链接 https://movie.douban.com/subject/26662159/
◎片  长 91分钟
◎导  演 蒂姆·希尔 Tim Hill
◎编  剧 蒂姆·希尔 Tim Hill
       乔纳森·阿贝尔 Jonathan Aibel
       格伦·伯杰 Glenn Berger
       史蒂芬·海伦伯格 Stephen Hillenburg
       保罗·提比特 Paul Tibbitt
◎演  员 基努·里维斯 Keanu Reeves
       奥卡菲娜 Awkwafina
       克兰西·布朗 Clancy Brown
       汤姆·肯尼 Tom Kenny
       比尔·法格巴克 Bill Fagerbakke
       罗里·艾伦 Lori Alan
       劳伦斯师长 Mr. Lawrence
       玛丽·乔·卡特利特 Mary Jo Catlett
       罗德格尔·邦帕斯 Rodger Bumpass
       吉尔·塔利 Jill Talley
       卡罗琳·劳伦斯 Carolyn Lawrence
       维罗妮卡·阿利奇诺 Veronica Alicino
       汉斯·季默 Hans Zimmer
       史蒂夫·马扎罗 Steve Mazzaro
        Nick Kenway Nick Kenway
       Ineke Majoor   Ineke Majoor
◎标  签 海绵宝宝 / 动画 / 笑剧 / 美国 / 2020 / 3D / 派拉蒙 / Nickelodeon
◎简  介

  《海绵宝宝:救援大冒险》报告了海绵宝宝心爱的宠物小蜗被绑架后,海绵宝宝和派大星前往失落的大西洋城展开救援冒险的故事。在这场布满危险又妙趣横生的救援行动中,海绵宝宝和他的朋友们用现实行动证实了友谊的气力无穷大!
  1. Video
  2. ID                                       : 1
  3. Format                                   : HEVC
  4. Format/Info                              : High Efficiency Video Coding
  5. Format profile                           : Main [email protected]@High
  6. HDR format                               : Dolby Vision, Version 1.0, dvhe.05.06, BL+RPU
  7. Codec ID                                 : dvhe
  8. Codec ID/Info                            : High Efficiency Video Coding with Dolby Vision
  9. Duration                                 : 1 h 31 min
  10. Bit rate                                 : 14.2 Mb/s
  11. Width                                    : 3 840 pixels
  12. Height                                   : 2 080 pixels
  13. Original height                          : 2 076 pixels
  14. Display aspect ratio                     : 1.85:1
  15. Original display aspect ratio            : 1.85:1
  16. Frame rate mode                          : Constant
  17. Frame rate                               : 23.976 (24000/1001/189150) FPS
  18. Color space                              : YUV
  19. Chroma subsampling                       : 4:2:0
  20. Bit depth                                : 10 bits
  21. Bits/(Pixel*Frame)                       : 0.074
  22. Stream size                              : 9.06 GiB (95%)
  23. Default                                  : Yes
  24. Alternate group                          : 1
  25. Encoded date                             : UTC 2022-08-05 13:24:21
  26. Tagged date                              : UTC 2022-08-05 13:25:19
  27. Codec configuration box                  : hvcC+dvcC
  28. Audio
  29. ID                                       : 2
  30. Format                                   : E-AC-3 JOC
  31. Format/Info                              : Enhanced AC-3 with Joint Object Coding
  32. Commercial name                          : Dolby Digital Plus with Dolby Atmos
  33. Codec ID                                 : ec-3
  34. Duration                                 : 1 h 31 min
  35. Bit rate mode                            : Constant
  36. Bit rate                                 : 768 kb/s
  37. Maximum bit rate                         : 811 kb/s
  38. Channel(s)                               : 6 channels
  39. Channel layout                           : L R C LFE Ls Rs
  40. Sampling rate                            : 48.0 kHz
  41. Frame rate                               : 31.250 FPS (1536 SPF)
  42. Compression mode                         : Lossy
  43. Stream size                              : 503 MiB (5%)
  44. Title                                    : English
  45. Language                                 : English
  46. Service kind                             : Complete Main
  47. Default                                  : Yes
  48. Alternate group                          : 1
  49. Tagged date                              : UTC 2022-08-05 13:25:19
  50. Complexity index                         : Not present / 16
  51. Number of dynamic objects                : 15
  52. Bed channel count                        : 1 channel
  53. Bed channel configuration                : LFE
  54. Text #1
  55. ID                                       : 3
  56. Format                                   : Timed Text
  57. Codec ID                                 : tx3g
  58. Duration                                 : 1 h 22 min
  59. Bit rate mode                            : Variable
  60. Bit rate                                 : 78 b/s
  61. Frame rate                               : 0.525 FPS
  62. Stream size                              : 47.1 KiB (0%)
  63. Title                                    : English
  64. Language                                 : English
  65. Forced                                   : No
  66. Encoded date                             : UTC 2022-08-05 13:25:19
  67. Tagged date                              : UTC 2022-08-05 13:25:19
  68. Text #2
  69. ID                                       : 4
  70. Format                                   : Timed Text
  71. Codec ID                                 : tx3g
  72. Duration                                 : 1 h 30 min
  73. Bit rate mode                            : Variable
  74. Bit rate                                 : 88 b/s
  75. Frame rate                               : 0.628 FPS
  76. Stream size                              : 57.8 KiB (0%)
  77. Title                                    : English
  78. Language                                 : English
  79. Forced                                   : No
  80. Encoded date                             : UTC 2022-08-05 13:25:19
  81. Tagged date                              : UTC 2022-08-05 13:25:19
  82. Text #3
  83. ID                                       : 5
  84. Format                                   : Timed Text
  85. Codec ID                                 : tx3g
  86. Duration                                 : 1 h 31 min
  87. Bit rate mode                            : Variable
  88. Bit rate                                 : 59 b/s
  89. Frame rate                               : 0.475 FPS
  90. Stream size                              : 39.6 KiB (0%)
  91. Title                                    : Danish
  92. Language                                 : Danish
  93. Forced                                   : No
  94. Encoded date                             : UTC 2022-08-05 13:25:19
  95. Tagged date                              : UTC 2022-08-05 13:25:19
  96. Text #4
  97. ID                                       : 6
  98. Format                                   : Timed Text
  99. Codec ID                                 : tx3g
  100. Duration                                 : 1 h 31 min
  101. Bit rate mode                            : Variable
  102. Bit rate                                 : 65 b/s
  103. Frame rate                               : 0.488 FPS
  104. Stream size                              : 43.8 KiB (0%)
  105. Title                                    : Finnish
  106. Language                                 : Finnish
  107. Forced                                   : No
  108. Encoded date                             : UTC 2022-08-05 13:25:19
  109. Tagged date                              : UTC 2022-08-05 13:25:19
  110. Text #5
  111. ID                                       : 7
  112. Format                                   : Timed Text
  113. Codec ID                                 : tx3g
  114. Duration                                 : 1 h 31 min
  115. Bit rate mode                            : Variable
  116. Bit rate                                 : 66 b/s
  117. Frame rate                               : 0.461 FPS
  118. Stream size                              : 44.1 KiB (0%)
  119. Title                                    : Korean
  120. Language                                 : Korean
  121. Forced                                   : No
  122. Encoded date                             : UTC 2022-08-05 13:25:19
  123. Tagged date                              : UTC 2022-08-05 13:25:19
  124. Text #6
  125. ID                                       : 8
  126. Format                                   : Timed Text
  127. Codec ID                                 : tx3g
  128. Duration                                 : 1 h 31 min
  129. Bit rate mode                            : Variable
  130. Bit rate                                 : 68 b/s
  131. Frame rate                               : 0.487 FPS
  132. Stream size                              : 45.8 KiB (0%)
  133. Title                                    : Norwegian
  134. Language                                 : Norwegian
  135. Forced                                   : No
  136. Encoded date                             : UTC 2022-08-05 13:25:19
  137. Tagged date                              : UTC 2022-08-05 13:25:19
  138. Text #7
  139. ID                                       : 9
  140. Format                                   : Timed Text
  141. Codec ID                                 : tx3g
  142. Duration                                 : 1 h 31 min
  143. Bit rate mode                            : Variable
  144. Bit rate                                 : 70 b/s
  145. Frame rate                               : 0.486 FPS
  146. Stream size                              : 46.8 KiB (0%)
  147. Title                                    : Swedish
  148. Language                                 : Swedish
  149. Forced                                   : No
  150. Encoded date                             : UTC 2022-08-05 13:25:19
  151. Tagged date                              : UTC 2022-08-05 13:25:19
复制代码





                                       
                                       

                                       
                                       
                                       




The.SpongeBob.Movie.Sponge.on.the.Run.2020.2160p.WEB-DL.DDP5.1.DV.MP4.x265-DVSUX.torrent (24.58 KB, 下载次数: 0)
回复

使用道具 举报

懒得打字嘛,点击右侧快捷回复 【右侧内容,后台自定义】
您需要登录后才可以回帖 登录 | 立即注册

本版积分规则

Archiver|手机版|小黑屋| 中国高清网 |网站地图 

GMT+8, 2022-8-18 19:46 , Processed in 0.101744 second(s), 26 queries .

Powered by HDchina X3.4

Copyright 2017-2019©HDchina.All right reserved

返回顶部 联系我们