查看: 17|回复: 0

[2160p] 48小时闯天关 Another.48.Hrs.1990.2160p.WEB-DL.DTS-HD.MA.TrueHD.5.1.DV.MKV.x265-DVSUX 21.92GB

[复制链接]
蓝光币
28 枚
发表于 2022-8-6 09:12:01 | 显示全部楼层 |阅读模式


◎标  题 48小时闯天关
◎译  名 新48小时 / 四十八小时2
◎片  名 Another 48 Hrs.
◎年  代 1990
◎产  地 美国
◎类  别 剧情 / 笑剧 / 行动 / 惊悚 / 犯罪
◎语  言 英语
◎上映日期 1990-06-08
◎IMDb评分 5.9/10 (41314人评价)
◎IMDb链接 https://www.imdb.com/title/tt0099044/
◎豆瓣评分 6.0/10 (186人评价)
◎豆瓣链接 https://movie.douban.com/subject/1296349/
◎片  长 93 分钟
◎导  演 沃尔特·希尔 Walter Hill
◎编  剧 杰布·斯图尔特 Jeb Stuart
       斯蒂芬·E.德·索萨 Steven E. de Souza
       拉里·格罗斯 Larry Gross
       约翰·法沙诺 John Fasano
       罗杰·斯波蒂斯伍德 Roger Spottiswoode
       沃尔特·希尔 Walter Hill
       艾迪·墨菲 Eddie Murphy
◎演  员 艾迪·墨菲 Eddie Murphy
       尼克·诺特 Nick Nolte
       布里翁·詹姆斯 Brion James
       谢娜·奥勃良 Shauna O'Brien
       Dawn Robinson Dawn Robinson
       Edgar Small Edgar Small
       Michael Williams Michael Williams
       Edward Walsh Edward Walsh
       佩姬·梁 Page Leong
       布赖特·詹宁斯 Brent Jennings
       阿兰·格拉夫 Allan Graf
       埃德·欧罗斯 Ed O'Ross
       菲利斯·奥兰迪 Felice Orlandi
       小猫娜提雅维达 Kitten Natividad
       Hoke Howell Hoke Howell
       提莎·坎贝尔-马丁 Tisha Campbell-Martin
       丹尼斯海顿 Dennis Hayden
       凯文·泰德 Kevin Tighe
       安德鲁·迪沃夫 Andrew Divoff
       伯尼·凯西 Bernie Casey
       Alisa Christensen Alisa Christensen
       维克托·勃兰特 Victor Brandt
       特德·马克兰德 Ted Markland
       Benjamin Lum Benjamin Lum
       Russ McCubbin Russ McCubbin
       弗兰克·麦克雷 Frank McRae
       Richard Lee-Sung Richard Lee-Sung
       John Del Regno John Del Regno
       南茜·艾薇哈德 Nancy Everhard
       Deirdre Fitzpatrick Deirdre Fitzpatrick
       拉尔夫·S·辛格尔顿 Ralph S. Singleton
       劳伦斯·戈登 Lawrence Gordon
       詹姆斯·霍纳 James Horner
       马修·莱昂涅蒂 Matthew F. Leonetti
       Freeman A. Davies Freeman A. Davies
       杰基•伯奇 Jackie Burch
       乔治·R·尼尔森 George R. Nelson
       约瑟夫·C·内梅克三世 Joseph C. Nemec III
       Gary Wissner Gary Wissner
       Dan Moore Dan Moore
       Peter Tothpal Peter Tothpal
       Robert L. Stevenson Robert L. Stevenson
       Michael F. Blake Michael F. Blake
       阿兰·格拉夫 Allan Graf
       Steve Grumette Steve Grumette
◎简  介

  白人警探尼克.诺尔蒂为了清查奥秘的毒贩"卖冰人",不能不找昔时的黑人罪犯同伴埃迪.墨菲辅佐供给线索。埃迪因有一笔巨款仍寄存在尼克手上,只好不情不愿地加以帮手,但二人在合作进程中发生多起抵触。最初,他们还是发现了卖冰人"的真正身份,本来是差人中人。全片从编剧的情节放置,到导演的行动设想,再到演员的负责表演,处处可见台前幕后工作职员极力使本片显得热烈都雅的尽力,不外终极还是摆脱不了既有的框架,只是在公式化当直达圈圈,甚至埃迪的惹笑手法也显得有点技穷了。
  1. Video
  2. ID                                       : 1
  3. Format                                   : HEVC
  4. Format/Info                              : High Efficiency Video Coding
  5. Format profile                           : Main [email protected]@High
  6. HDR format                               : Dolby Vision, Version 1.0, dvhe.05.06, BL+RPU
  7. Codec ID                                 : V_MPEGH/ISO/HEVC
  8. Duration                                 : 1 h 35 min
  9. Bit rate                                 : 24.6 Mb/s
  10. Width                                    : 3 840 pixels
  11. Height                                   : 2 076 pixels
  12. Display aspect ratio                     : 1.85:1
  13. Frame rate mode                          : Constant
  14. Frame rate                               : 23.976 (24000/1001/189150) FPS
  15. Color space                              : YUV
  16. Chroma subsampling                       : 4:2:0
  17. Bit depth                                : 10 bits
  18. Bits/(Pixel*Frame)                       : 0.129
  19. Stream size                              : 16.4 GiB (75%)
  20. Default                                  : Yes
  21. Forced                                   : No
  22. Audio #1
  23. ID                                       : 2
  24. Format                                   : MLP FBA
  25. Format/Info                              : Meridian Lossless Packing FBA
  26. Commercial name                          : Dolby TrueHD
  27. Codec ID                                 : A_TRUEHD
  28. Duration                                 : 1 h 35 min
  29. Bit rate mode                            : Variable
  30. Bit rate                                 : 3 637 kb/s
  31. Maximum bit rate                         : 4 929 kb/s
  32. Channel(s)                               : 6 channels
  33. Channel layout                           : L R C LFE Ls Rs
  34. Sampling rate                            : 48.0 kHz
  35. Frame rate                               : 1 200.000 FPS (40 SPF)
  36. Compression mode                         : Lossless
  37. Stream size                              : 2.42 GiB (11%)
  38. Title                                    : TrueHD 5.1
  39. Language                                 : English
  40. Default                                  : Yes
  41. Forced                                   : No
  42. Audio #2
  43. ID                                       : 3
  44. Format                                   : DTS XLL
  45. Format/Info                              : Digital Theater Systems
  46. Commercial name                          : DTS-HD Master Audio
  47. Codec ID                                 : A_DTS
  48. Duration                                 : 1 h 35 min
  49. Bit rate mode                            : Variable
  50. Bit rate                                 : 4 117 kb/s
  51. Channel(s)                               : 6 channels
  52. Channel layout                           : C L R Ls Rs LFE
  53. Sampling rate                            : 48.0 kHz
  54. Frame rate                               : 93.750 FPS (512 SPF)
  55. Bit depth                                : 24 bits
  56. Compression mode                         : Lossless
  57. Stream size                              : 2.74 GiB (13%)
  58. Title                                    : DTS-HD MA 5.1
  59. Language                                 : English
  60. Default                                  : No
  61. Forced                                   : No
  62. Audio #3
  63. ID                                       : 4
  64. Format                                   : AC-3
  65. Format/Info                              : Audio Coding 3
  66. Commercial name                          : Dolby Digital
  67. Codec ID                                 : A_AC3
  68. Duration                                 : 1 h 35 min
  69. Bit rate mode                            : Constant
  70. Bit rate                                 : 384 kb/s
  71. Channel(s)                               : 6 channels
  72. Channel layout                           : L R C LFE Ls Rs
  73. Sampling rate                            : 48.0 kHz
  74. Frame rate                               : 31.250 FPS (1536 SPF)
  75. Compression mode                         : Lossy
  76. Stream size                              : 262 MiB (1%)
  77. Title                                    : DD 5.1
  78. Language                                 : English
  79. Service kind                             : Complete Main
  80. Default                                  : No
  81. Forced                                   : No
  82. Text #1
  83. ID                                       : 5
  84. Format                                   : UTF-8
  85. Codec ID                                 : S_TEXT/UTF8
  86. Codec ID/Info                            : UTF-8 Plain Text
  87. Duration                                 : 1 h 27 min
  88. Bit rate                                 : 74 b/s
  89. Frame rate                               : 0.230 FPS
  90. Count of elements                        : 1215
  91. Stream size                              : 47.8 KiB (0%)
  92. Language                                 : English
  93. Default                                  : Yes
  94. Forced                                   : No
  95. Text #2
  96. ID                                       : 6
  97. Format                                   : UTF-8
  98. Codec ID                                 : S_TEXT/UTF8
  99. Codec ID/Info                            : UTF-8 Plain Text
  100. Duration                                 : 1 h 27 min
  101. Bit rate                                 : 53 b/s
  102. Frame rate                               : 0.150 FPS
  103. Count of elements                        : 792
  104. Stream size                              : 34.7 KiB (0%)
  105. Title                                    : French European
  106. Language                                 : French
  107. Default                                  : No
  108. Forced                                   : No
  109. Text #3
  110. ID                                       : 7
  111. Format                                   : PGS
  112. Muxing mode                              : zlib
  113. Codec ID                                 : S_HDMV/PGS
  114. Codec ID/Info                            : Picture based subtitle format used on BDs/HD-DVDs
  115. Duration                                 : 1 h 27 min
  116. Bit rate                                 : 50.4 kb/s
  117. Frame rate                               : 0.461 FPS
  118. Count of elements                        : 2430
  119. Stream size                              : 31.7 MiB (0%)
  120. Language                                 : English
  121. Default                                  : No
  122. Forced                                   : No
  123. Text #4
  124. ID                                       : 8
  125. Format                                   : PGS
  126. Muxing mode                              : zlib
  127. Codec ID                                 : S_HDMV/PGS
  128. Codec ID/Info                            : Picture based subtitle format used on BDs/HD-DVDs
  129. Duration                                 : 1 h 30 min
  130. Bit rate                                 : 53.5 kb/s
  131. Frame rate                               : 0.504 FPS
  132. Count of elements                        : 2752
  133. Stream size                              : 34.8 MiB (0%)
  134. Title                                    : SDH
  135. Language                                 : English
  136. Default                                  : No
  137. Forced                                   : No
  138. Text #5
  139. ID                                       : 9
  140. Format                                   : PGS
  141. Muxing mode                              : zlib
  142. Codec ID                                 : S_HDMV/PGS
  143. Codec ID/Info                            : Picture based subtitle format used on BDs/HD-DVDs
  144. Duration                                 : 1 h 30 min
  145. Bit rate                                 : 32.1 kb/s
  146. Frame rate                               : 0.264 FPS
  147. Count of elements                        : 1434
  148. Stream size                              : 20.8 MiB (0%)
  149. Language                                 : German
  150. Default                                  : No
  151. Forced                                   : No
  152. Text #6
  153. ID                                       : 10
  154. Format                                   : PGS
  155. Muxing mode                              : zlib
  156. Codec ID                                 : S_HDMV/PGS
  157. Codec ID/Info                            : Picture based subtitle format used on BDs/HD-DVDs
  158. Duration                                 : 1 h 27 min
  159. Bit rate                                 : 34.0 kb/s
  160. Frame rate                               : 0.300 FPS
  161. Count of elements                        : 1584
  162. Stream size                              : 21.4 MiB (0%)
  163. Language                                 : French
  164. Default                                  : No
  165. Forced                                   : No
  166. Text #7
  167. ID                                       : 11
  168. Format                                   : PGS
  169. Muxing mode                              : zlib
  170. Codec ID                                 : S_HDMV/PGS
  171. Codec ID/Info                            : Picture based subtitle format used on BDs/HD-DVDs
  172. Duration                                 : 1 h 27 min
  173. Bit rate                                 : 24.7 kb/s
  174. Frame rate                               : 0.348 FPS
  175. Count of elements                        : 1836
  176. Stream size                              : 15.5 MiB (0%)
  177. Language                                 : Japanese
  178. Default                                  : No
  179. Forced                                   : No
  180. Menu
  181. 00:00:00.000                             : en:Chapter 01
  182. 00:07:45.965                             : en:Chapter 02
  183. 00:13:22.302                             : en:Chapter 03
  184. 00:20:26.726                             : en:Chapter 04
  185. 00:24:25.382                             : en:Chapter 05
  186. 00:32:47.258                             : en:Chapter 06
  187. 00:42:21.416                             : en:Chapter 07
  188. 00:52:42.203                             : en:Chapter 08
  189. 00:57:38.625                             : en:Chapter 09
  190. 01:07:20.623                             : en:Chapter 10
  191. 01:11:11.438                             : en:Chapter 11
  192. 01:17:12.215                             : en:Chapter 12
  193. 01:21:49.868                             : en:Chapter 13
  194. 01:29:33.707                             : en:Chapter 14
  195. 01:32:24.794                             : en:Chapter 15
复制代码




                                       
                                       

                                       
                                       
                                       




Another.48.Hrs.1990.2160p.WEB-DL.DTS-HD.MA.TrueHD.5.1.DV.MKV.x265-DVSUX.torrent (28.06 KB, 下载次数: 0)
回复

使用道具 举报

懒得打字嘛,点击右侧快捷回复 【右侧内容,后台自定义】
您需要登录后才可以回帖 登录 | 立即注册

本版积分规则

Archiver|手机版|小黑屋| 中国高清网 |网站地图 

GMT+8, 2022-8-18 19:36 , Processed in 0.106175 second(s), 26 queries .

Powered by HDchina X3.4

Copyright 2017-2019©HDchina.All right reserved

返回顶部 联系我们