查看: 25|回复: 0

[科幻片] 洪荒搏斗 Creatures.the.World.Forgot.1971.1080p.BluRay.x264-GAZER 9.35GB

[复制链接]
蓝光币
28 枚
发表于 2022-8-6 08:46:24 | 显示全部楼层 |阅读模式


◎标  题 洪荒奋斗
◎片  名 Creatures the World Forgot
◎年  代 1971
◎产  地 英国
◎类  别 科幻 / 可骇 / 冒险
◎语  言 英语
◎上映日期 1971-04-18
◎IMDb评分 4.4/10 (771人评价)
◎IMDb链接 https://www.imdb.com/title/tt0066955/
◎豆瓣链接 https://movie.douban.com/subject/2363096/
◎片  长 92 分钟
◎导  演 唐·查菲 Don Chaffey
◎编  剧 迈克尔·卡雷拉斯 Michael Carreras
◎演  员 朱丽叶·爱姬 Julie Ege
       布莱恩·奥肖内西 Brian O'Shaughnessy
       托尼·邦纳 Tony Bonner
       罗莎莉·克拉切利 Rosalie Crutchley
◎标  签 英国 / 不是默片 / 英国电影 / 科幻 / 典范 / 恋爱 / 灾难 / 动人
  1. Video
  2. ID                                       : 1
  3. Format                                   : AVC
  4. Format/Info                              : Advanced Video Codec
  5. Format profile                           : [email protected]
  6. Format settings                          : CABAC / 4 Ref Frames
  7. Format settings, CABAC                   : Yes
  8. Format settings, Reference frames        : 4 frames
  9. Codec ID                                 : V_MPEG4/ISO/AVC
  10. Duration                                 : 1 h 35 min
  11. Bit rate                                 : 13.3 Mb/s
  12. Width                                    : 1 918 pixels
  13. Height                                   : 1 040 pixels
  14. Display aspect ratio                     : 1.85:1
  15. Frame rate mode                          : Constant
  16. Frame rate                               : 23.976 (24000/1001/189150) FPS
  17. Color space                              : YUV
  18. Chroma subsampling                       : 4:2:0
  19. Bit depth                                : 8 bits
  20. Scan type                                : Progressive
  21. Bits/(Pixel*Frame)                       : 0.278
  22. Stream size                              : 8.86 GiB (95%)
  23. Writing library                          : x264 core 164 r3095 baee400
  24. Encoding settings                        : cabac=1 / ref=4 / deblock=1:-3:-3 / analyse=0x3:0x133 / me=umh / subme=10 / psy=1 / psy_rd=1.20:0.00 / mixed_ref=1 / me_range=24 / chroma_me=1 / trellis=2 / 8x8dct=1 / cqm=0 / deadzone=21,11 / fast_pskip=0 / chroma_qp_offset=-2 / threads=24 / lookahead_threads=4 / sliced_threads=0 / nr=0 / decimate=0 / interlaced=0 / bluray_compat=0 / constrained_intra=0 / bframes=8 / b_pyramid=2 / b_adapt=2 / b_bias=0 / direct=3 / weightb=1 / open_gop=0 / weightp=2 / keyint=250 / keyint_min=23 / scenecut=40 / intra_refresh=0 / rc_lookahead=60 / rc=crf / mbtree=1 / crf=19.0 / qcomp=0.60 / qpmin=0 / qpmax=69 / qpstep=4 / ip_ratio=1.40 / aq=3:0.90
  25. Default                                  : Yes
  26. Forced                                   : No
  27. Color range                              : Limited
  28. Matrix coefficients                      : BT.709

  29. Audio #1
  30. ID                                       : 2
  31. Format                                   : FLAC
  32. Format/Info                              : Free Lossless Audio Codec
  33. Codec ID                                 : A_FLAC
  34. Duration                                 : 1 h 35 min
  35. Bit rate mode                            : Variable
  36. Bit rate                                 : 648 kb/s
  37. Channel(s)                               : 1 channel
  38. Channel layout                           : C
  39. Sampling rate                            : 48.0 kHz
  40. Frame rate                               : 11.719 FPS (4096 SPF)
  41. Bit depth                                : 24 bits
  42. Compression mode                         : Lossless
  43. Stream size                              : 443 MiB (5%)
  44. Writing library                          : libFLAC 1.3.3 (UTC 2019-08-04)
  45. Language                                 : English
  46. Default                                  : Yes
  47. Forced                                   : No

  48. Audio #2
  49. ID                                       : 3
  50. Format                                   : AAC LC
  51. Format/Info                              : Advanced Audio Codec Low Complexity
  52. Codec ID                                 : A_AAC-2
  53. Duration                                 : 1 h 35 min
  54. Bit rate                                 : 78.5 kb/s
  55. Channel(s)                               : 2 channels
  56. Channel layout                           : L R
  57. Sampling rate                            : 48.0 kHz
  58. Frame rate                               : 46.875 FPS (1024 SPF)
  59. Compression mode                         : Lossy
  60. Delay relative to video                  : 20 ms
  61. Stream size                              : 53.6 MiB (1%)
  62. Title                                    : Commentary
  63. Language                                 : English
  64. Default                                  : No
  65. Forced                                   : No

  66. Text
  67. ID                                       : 4
  68. Format                                   : PGS
  69. Muxing mode                              : zlib
  70. Codec ID                                 : S_HDMV/PGS
  71. Codec ID/Info                            : Picture based subtitle format used on BDs/HD-DVDs
  72. Duration                                 : 1 h 33 min
  73. Bit rate                                 : 8 886 b/s
  74. Count of elements                        : 894
  75. Stream size                              : 5.93 MiB (0%)
  76. Title                                    : SDH
  77. Language                                 : English
  78. Default                                  : No
  79. Forced                                   : No

  80. Menu
  81. 00:00:00.000                             : Chapter 01
  82. 00:12:51.688                             : Chapter 02
  83. 00:20:47.913                             : Chapter 03
  84. 00:29:48.120                             : Chapter 04
  85. 00:38:26.471                             : Chapter 05
  86. 00:48:12.431                             : Chapter 06
  87. 00:54:22.176                             : Chapter 07
  88. 01:06:06.171                             : Chapter 08
  89. 01:17:38.070                             : Chapter 09
  90. 01:25:44.556                             : Chapter 10
  91. 01:35:28.222                             : Chapter 11
复制代码






                                       
                                       

                                       
                                       
                                       




Creatures.the.World.Forgot.1971.1080p.BluRay.x264-GAZER.torrent (24.13 KB, 下载次数: 0)
回复

使用道具 举报

懒得打字嘛,点击右侧快捷回复 【右侧内容,后台自定义】
您需要登录后才可以回帖 登录 | 立即注册

本版积分规则

Archiver|手机版|小黑屋| 中国高清网 |网站地图 

GMT+8, 2022-8-18 19:37 , Processed in 0.088163 second(s), 26 queries .

Powered by HDchina X3.4

Copyright 2017-2019©HDchina.All right reserved

返回顶部 联系我们