查看: 25|回复: 0

[科幻片] 洪荒搏斗 Creatures.the.World.Forgot.1971.720p.BluRay.x264-GAZER 4.57GB

[复制链接]
蓝光币
28 枚
发表于 2022-8-6 08:43:13 | 显示全部楼层 |阅读模式

+ V1 L0 k5 K1 W/ d
4 E% i( O( s' q( y◎标  题 洪荒奋斗' ?, A# _4 y& h1 ?& g5 |8 w( {
◎片  名 Creatures the World Forgot9 ^5 v' m5 ]/ P  K/ J# r
◎年  代 1971
4 {% F1 ^! ^* u3 R6 u3 d2 _◎产  地 英国' g, S1 Q8 U: J, `; @) b
◎类  别 科幻 / 可骇 / 冒险- p, Q# q6 r( y+ }
◎语  言 英语9 {& ]) y4 k6 q# @# ^: h1 B; ~
◎上映日期 1971-04-182 l, ?8 t/ z; F7 y
◎IMDb评分 4.4/10 (771人评价)* O4 t8 t/ f2 @8 I! a
◎IMDb链接 https://www.imdb.com/title/tt0066955/
% {, Z. ^& n& X0 j0 P$ i◎豆瓣链接 https://movie.douban.com/subject/2363096/
. t; `& F3 G( B1 ]◎片  长 92 分钟; E" d, P- p5 W+ q; }. J
◎导  演 唐·查菲 Don Chaffey
; N' [% M/ l% \* z- S7 n0 [6 o◎编  剧 迈克尔·卡雷拉斯 Michael Carreras! \( E7 `/ w% l& y
◎演  员 朱丽叶·爱姬 Julie Ege
' g# y+ }5 s9 O  \; J, c% h0 x       布莱恩·奥肖内西 Brian O'Shaughnessy- M$ S/ |( p5 v) b
       托尼·邦纳 Tony Bonner$ |6 d% B. V( y! u& }( r4 _
       罗莎莉·克拉切利 Rosalie Crutchley, S, b4 g8 |  }: ?' C) C4 j
◎标  签 英国 / 不是默片 / 英国电影 / 科幻 / 典范 / 恋爱 / 灾难 / 动人: v2 o8 o0 Z" E( p3 ~2 ^9 ?
  1. Video
    * C6 W' z! a7 R
  2. ID                                       : 1
    " r2 Z% T8 D7 m! I0 n2 W* S
  3. Format                                   : AVC
      f3 t9 N+ R) X) l1 D3 [8 h/ v
  4. Format/Info                              : Advanced Video Codec5 x% H) A1 ]4 c6 b/ c
  5. Format profile                           : [email protected]9 i  q3 ~% U) l2 m; L/ t7 }3 h7 e
  6. Format settings                          : CABAC / 9 Ref Frames
    4 J2 x; y- T6 P5 P& W3 `" V" G
  7. Format settings, CABAC                   : Yes
    / l  x: ]! s3 z2 W
  8. Format settings, Reference frames        : 9 frames9 y" O4 v: J0 ]! `  M
  9. Codec ID                                 : V_MPEG4/ISO/AVC" T$ w# T/ D- R4 |* r
  10. Duration                                 : 1 h 35 min
    $ f2 L- v- H/ C2 B, ^% u
  11. Bit rate                                 : 6 124 kb/s
    , X4 d; n. A3 Z2 ~% x1 i2 ~
  12. Width                                    : 1 280 pixels6 }6 q9 k$ H" k- A) P6 \
  13. Height                                   : 694 pixels; A8 q0 Y& S9 H+ H2 K9 ^
  14. Display aspect ratio                     : 1.85:1
    + U- K5 s3 h# {9 u5 P" n/ }
  15. Frame rate mode                          : Constant' Z1 N; @! C- w) _# j
  16. Frame rate                               : 23.976 (24000/1001/189150) FPS6 ?' o0 T. R" E. D3 k, R
  17. Color space                              : YUV0 a1 R( x# T. }' W
  18. Chroma subsampling                       : 4:2:0
    2 q3 v7 S  T# d6 f2 N1 O
  19. Bit depth                                : 8 bits5 U1 m  H1 C+ i3 a
  20. Scan type                                : Progressive' H+ J4 k+ ]: ]) F( T# ]
  21. Bits/(Pixel*Frame)                       : 0.288
    : Z7 W) L- B1 D& R
  22. Stream size                              : 4.08 GiB (89%)
    9 i, z( N' r6 T, O1 _8 ?' j
  23. Writing library                          : x264 core 164 r3095 baee400
    0 S% y1 S# r% _+ U/ ]  d1 T
  24. Encoding settings                        : cabac=1 / ref=9 / deblock=1:-3:-3 / analyse=0x3:0x133 / me=umh / subme=10 / psy=1 / psy_rd=1.20:0.00 / mixed_ref=1 / me_range=24 / chroma_me=1 / trellis=2 / 8x8dct=1 / cqm=0 / deadzone=21,11 / fast_pskip=0 / chroma_qp_offset=-2 / threads=22 / lookahead_threads=3 / sliced_threads=0 / nr=0 / decimate=0 / interlaced=0 / bluray_compat=0 / constrained_intra=0 / bframes=8 / b_pyramid=2 / b_adapt=2 / b_bias=0 / direct=3 / weightb=1 / open_gop=0 / weightp=2 / keyint=250 / keyint_min=23 / scenecut=40 / intra_refresh=0 / rc_lookahead=60 / rc=crf / mbtree=1 / crf=19.0 / qcomp=0.60 / qpmin=0 / qpmax=69 / qpstep=4 / ip_ratio=1.40 / aq=3:0.903 e1 n# t' ^: K
  25. Default                                  : Yes
    6 ~. B" |7 D- ?
  26. Forced                                   : No
    % d. f9 R$ w; U) ~$ c
  27. Color range                              : Limited
    3 U6 p! K) d# {7 g& w
  28. Matrix coefficients                      : BT.709
    9 G! r; K5 l' Z2 J: `

  29. 8 m" U1 ^: Y! I
  30. Audio #13 I. {: t5 I5 b) e2 v; U. i
  31. ID                                       : 2
    # v4 A8 n1 b! `' }
  32. Format                                   : FLAC
    9 k! o% y: _, r+ @! l
  33. Format/Info                              : Free Lossless Audio Codec2 W7 c8 F! z4 \% S; T/ c$ N& L2 P
  34. Codec ID                                 : A_FLAC
    7 j3 W" _# `! x5 ^
  35. Duration                                 : 1 h 35 min  ]& w7 G: V* Q% T% Q5 f4 c
  36. Bit rate mode                            : Variable0 a& r& i, _( S* l: k& G' v) S
  37. Bit rate                                 : 648 kb/s
    - |1 u! P" f( A  x  q$ L% |
  38. Channel(s)                               : 1 channel
    3 N9 L9 b, O! O" R% w3 M  s- i+ p
  39. Channel layout                           : C
    2 ]2 a6 h) m. P8 o
  40. Sampling rate                            : 48.0 kHz7 V6 ]$ Q! |6 y! ^
  41. Frame rate                               : 11.719 FPS (4096 SPF)
    . F! n) g4 F0 H+ p
  42. Bit depth                                : 24 bits1 P2 f( S2 E. M8 |! h) b! @
  43. Compression mode                         : Lossless
    7 s' X  N, N4 N! R* v
  44. Stream size                              : 443 MiB (9%)3 l" E. J9 ?# r. m
  45. Writing library                          : libFLAC 1.3.3 (UTC 2019-08-04)3 @0 ]+ T+ _5 ?* J6 A0 B
  46. Language                                 : English
    + k7 L  y: K% p
  47. Default                                  : Yes
    ) B  b8 |- k/ Z
  48. Forced                                   : No3 p1 _8 ~: y# h

  49. 2 q! f# O& i! f& K8 K! s1 h
  50. Audio #20 i' W- F4 J: d. u
  51. ID                                       : 32 i5 W" o3 v/ T1 w
  52. Format                                   : AAC LC; y  _! v) J& I/ \+ r
  53. Format/Info                              : Advanced Audio Codec Low Complexity
    6 P, L6 F7 [% `) F! p
  54. Codec ID                                 : A_AAC-2
    / H7 w9 j( N0 a+ I
  55. Duration                                 : 1 h 35 min
    * Q- X& U# C' o1 W; o
  56. Bit rate                                 : 78.5 kb/s
    + y! [! a3 p* c- a, k9 D/ [; n" @
  57. Channel(s)                               : 2 channels! }  j( i, {7 Y4 M* G: C
  58. Channel layout                           : L R
    / G; j2 R  Q1 I4 x" R1 X, a
  59. Sampling rate                            : 48.0 kHz
    ' g: s0 L; S6 g$ b( ]( s/ u' ~
  60. Frame rate                               : 46.875 FPS (1024 SPF)
    : j# j2 ~0 k* i8 G% L2 a
  61. Compression mode                         : Lossy) j* @& R; N  M* S* C* J$ ~6 u
  62. Delay relative to video                  : 20 ms; e8 [7 M, _0 h  B# ^- d2 d# H. b
  63. Stream size                              : 53.6 MiB (1%)
    8 B2 D, S5 s0 g% {- R
  64. Title                                    : Commentary
    6 }1 @# n3 r$ T/ \* C' H
  65. Language                                 : English
    4 D/ [2 e* ?9 P3 D8 x0 n2 |2 ^& w: c" k
  66. Default                                  : No' J( h6 N, K" O4 j; U$ P7 V
  67. Forced                                   : No
    # b2 c) h( H  U* Q4 V$ C6 @
  68. ; z; x6 T  I; ~7 Y; |
  69. Text
      k; j' P- ~3 @& T% w
  70. ID                                       : 4
    " a+ m" T6 Q& c! p
  71. Format                                   : PGS
    ; P8 I  \- \6 Q& e' f
  72. Muxing mode                              : zlib6 e* o; i( @! \/ B; t
  73. Codec ID                                 : S_HDMV/PGS
    ; D, u' `) \2 `& c
  74. Codec ID/Info                            : Picture based subtitle format used on BDs/HD-DVDs
    0 L8 @( h% P' J7 `; R
  75. Duration                                 : 1 h 33 min  X7 u, h, t+ q8 d4 ~1 ^
  76. Bit rate                                 : 8 886 b/s
    : I* O4 E1 K( m/ r3 k
  77. Count of elements                        : 894
    % Q& F9 x% }: A1 i& Y
  78. Stream size                              : 5.93 MiB (0%)
    5 A. r/ N! s5 p1 e! Y5 ^
  79. Title                                    : SDH
    * x% P- e0 r3 v7 ]3 |3 }
  80. Language                                 : English
    . ]: I3 d2 O+ g# I( u# v3 n
  81. Default                                  : No4 u( Z' n5 @) a0 q
  82. Forced                                   : No5 A2 p+ \, v( a+ R$ z
  83. 4 r( ]- n4 }# Y3 X
  84. Menu  m+ `8 x! _# ^
  85. 00:00:00.000                             : Chapter 01
    ( K+ o& T- c$ g, A5 Z& w  `
  86. 00:12:51.688                             : Chapter 021 J8 c- R' i  I  K
  87. 00:20:47.913                             : Chapter 03
    8 p$ F/ D1 y5 M: R2 a' v
  88. 00:29:48.120                             : Chapter 04
    3 z( b1 I% g7 H% ~; _
  89. 00:38:26.471                             : Chapter 05
    5 q* d: }2 @: @6 G* S2 H
  90. 00:48:12.431                             : Chapter 06
    , o! t8 a" y6 s1 B- X
  91. 00:54:22.176                             : Chapter 07* u3 L6 _7 [. `. A1 l! m! c  _- m
  92. 01:06:06.171                             : Chapter 085 t2 }$ B4 g" p* t4 \! f' I
  93. 01:17:38.070                             : Chapter 09
    ! q4 T5 J* y: A* w
  94. 01:25:44.556                             : Chapter 101 n! Y5 P" Y6 N, h/ k" O
  95. 01:35:28.222                             : Chapter 11
复制代码
4 D. `  K- J8 v+ e  q

* z+ B, |( h. Q" o7 u2 T) x2 V8 h4 n+ F4 c2 A
; f' [$ l( |" @" N  d- {

8 M4 f, W; t1 M5 W9 W! i' Y2 j2 o+ G" ?8 r5 b
                                       
# b) N2 D; x/ L: n                                        ( ]0 `  k8 o# c" l8 x9 @& S/ n% H

+ u+ I0 R, }/ i7 o( t                                       
7 o4 s- H  w* X6 y; _3 U                                        ( q3 O" r; r; ], [2 K& w  C2 t" l
                                       
) `8 w( v1 O/ K* h4 ^: H6 b/ w% V% k# _: w! a3 g; B7 U
+ D' N; V' F$ |( K3 W

8 k3 ?3 r, o) b' z) a) f% ]# f" ?. d. x4 `3 H
Creatures.the.World.Forgot.1971.720p.BluRay.x264-GAZER.torrent (23.62 KB, 下载次数: 0)
回复

使用道具 举报

懒得打字嘛,点击右侧快捷回复 【右侧内容,后台自定义】
您需要登录后才可以回帖 登录 | 立即注册

本版积分规则

Archiver|手机版|小黑屋| 中国高清网 |网站地图 

GMT+8, 2022-8-18 19:25 , Processed in 0.097211 second(s), 26 queries .

Powered by HDchina X3.4

Copyright 2017-2019©HDchina.All right reserved

返回顶部 联系我们