查看: 31|回复: 0

[2160p] 乐高星球大战:夏日假期 LEGO.Star.Wars.Summer.Vacation.2022.2160p.DSNP.WEB-DL.x265.10bit.HDR.DDP5.1-SALT 5.27GB

[复制链接]
蓝光币
28 枚
发表于 2022-8-5 18:23:22 | 显示全部楼层 |阅读模式


◎标  题 乐高星球大战:夏日假期
◎译  名 LEGO星际大战:夏日假期(台) / The LEGO Holiday Special
◎片  名 Lego Star Wars: Summer Vacation
◎年  代 2022
◎产  地 美国
◎类  别 笑剧 / 行动 / 科幻 / 动画 / 奇异 / 冒险
◎语  言 英语
◎上映日期 2022-08-05(美国收集)
◎IMDb链接 https://www.imdb.com/title/tt20784210/
◎豆瓣链接 https://movie.douban.com/subject/35915734/
◎导  演 肯·坎宁安 Ken Cunningham
◎编  剧 大卫·谢恩 David Shayne
◎演  员 海伦·萨德勒 Helen Sadler
       杰克·格林 Jake Green
       凯莉·玛丽·陈 Kelly Marie Tran
       奥玛·本森·米勒 Omar Benson Miller
       安东尼·丹尼尔斯 Anthony Daniels
       比利·迪·威廉姆斯 Billy Dee Williams
       迪·布拉雷·贝克尔 Dee Bradley Baker
       詹姆斯·阿诺德·泰勒 James Arnold Taylor
       凯文·迈克尔·理查德森 Kevin Michael Richardson
       凯丽·卡伦 Kyliegh Curran
       马特·兰特尔 Matt Lanter
       马特·斯隆 Matt Sloan
       马修·伍德 Matthew Wood
       罗斯·马昆德 Ross Marquand
       谢尔碧·杨 Shelby Young
       特雷弗·德瓦 Trevor Devall
       托马斯·列农 Thomas Lennon
       保罗·F·汤普金斯 Paul F. Tompkins
       阿尔·杨科维克 'Weird Al' Yankovic
◎简  介

  《乐高星球大战:夏日假期》将于8月5日上线Disney+。
  1. Video
  2. ID                                       : 1
  3. Format                                   : HEVC
  4. Format/Info                              : High Efficiency Video Coding
  5. Format profile                           : Main [email protected]@High
  6. HDR format                               : SMPTE ST 2086, HDR10 compatible
  7. Codec ID                                 : V_MPEGH/ISO/HEVC
  8. Duration                                 : 45 min 2 s
  9. Bit rate                                 : 16.5 Mb/s
  10. Width                                    : 3 840 pixels
  11. Height                                   : 2 160 pixels
  12. Display aspect ratio                     : 16:9
  13. Frame rate mode                          : Constant
  14. Frame rate                               : 24.000 FPS
  15. Color space                              : YUV
  16. Chroma subsampling                       : 4:2:0
  17. Bit depth                                : 10 bits
  18. Bits/(Pixel*Frame)                       : 0.083
  19. Stream size                              : 5.19 GiB (98%)
  20. Language                                 : English
  21. Default                                  : Yes
  22. Forced                                   : No
  23. Color range                              : Limited
  24. Color primaries                          : BT.2020
  25. Transfer characteristics                 : PQ
  26. Matrix coefficients                      : BT.2020 non-constant
  27. Mastering display color primaries        : BT.2020
  28. Mastering display luminance              : min: 0.0000 cd/m2, max: 1000 cd/m2
  29. Audio
  30. ID                                       : 2
  31. Format                                   : E-AC-3
  32. Format/Info                              : Enhanced AC-3
  33. Commercial name                          : Dolby Digital Plus
  34. Codec ID                                 : A_EAC3
  35. Duration                                 : 45 min 2 s
  36. Bit rate mode                            : Constant
  37. Bit rate                                 : 256 kb/s
  38. Channel(s)                               : 6 channels
  39. Channel layout                           : L R C LFE Ls Rs
  40. Sampling rate                            : 48.0 kHz
  41. Frame rate                               : 31.250 FPS (1536 SPF)
  42. Compression mode                         : Lossy
  43. Stream size                              : 82.5 MiB (2%)
  44. Language                                 : English
  45. Service kind                             : Complete Main
  46. Default                                  : Yes
  47. Forced                                   : No
  48. Text #1
  49. ID                                       : 3
  50. Format                                   : UTF-8
  51. Codec ID                                 : S_TEXT/UTF8
  52. Codec ID/Info                            : UTF-8 Plain Text
  53. Duration                                 : 43 min 57 s
  54. Bit rate                                 : 89 b/s
  55. Frame rate                               : 0.282 FPS
  56. Count of elements                        : 743
  57. Stream size                              : 29.0 KiB (0%)
  58. Title                                    : English (SDH)
  59. Language                                 : English
  60. Default                                  : No
  61. Forced                                   : No
  62. Text #2
  63. ID                                       : 4
  64. Format                                   : UTF-8
  65. Codec ID                                 : S_TEXT/UTF8
  66. Codec ID/Info                            : UTF-8 Plain Text
  67. Duration                                 : 44 min 23 s
  68. Bit rate                                 : 75 b/s
  69. Frame rate                               : 0.238 FPS
  70. Count of elements                        : 633
  71. Stream size                              : 24.7 KiB (0%)
  72. Title                                    : ?e?tina
  73. Language                                 : Czech
  74. Default                                  : No
  75. Forced                                   : No
  76. Text #3
  77. ID                                       : 5
  78. Format                                   : UTF-8
  79. Codec ID                                 : S_TEXT/UTF8
  80. Codec ID/Info                            : UTF-8 Plain Text
  81. Duration                                 : 44 min 23 s
  82. Bit rate                                 : 76 b/s
  83. Frame rate                               : 0.199 FPS
  84. Count of elements                        : 531
  85. Stream size                              : 25.0 KiB (0%)
  86. Title                                    : Dansk
  87. Language                                 : Danish
  88. Default                                  : No
  89. Forced                                   : No
  90. Text #4
  91. ID                                       : 6
  92. Format                                   : UTF-8
  93. Codec ID                                 : S_TEXT/UTF8
  94. Codec ID/Info                            : UTF-8 Plain Text
  95. Duration                                 : 44 min 23 s
  96. Bit rate                                 : 86 b/s
  97. Frame rate                               : 0.239 FPS
  98. Count of elements                        : 637
  99. Stream size                              : 28.0 KiB (0%)
  100. Title                                    : Deutsch
  101. Language                                 : German
  102. Default                                  : No
  103. Forced                                   : No
  104. Text #5
  105. ID                                       : 7
  106. Format                                   : UTF-8
  107. Codec ID                                 : S_TEXT/UTF8
  108. Codec ID/Info                            : UTF-8 Plain Text
  109. Duration                                 : 44 min 23 s
  110. Bit rate                                 : 142 b/s
  111. Frame rate                               : 0.239 FPS
  112. Count of elements                        : 636
  113. Stream size                              : 46.3 KiB (0%)
  114. Title                                    : Greek
  115. Language                                 : Greek
  116. Default                                  : No
  117. Forced                                   : No
  118. Text #6
  119. ID                                       : 8
  120. Format                                   : UTF-8
  121. Codec ID                                 : S_TEXT/UTF8
  122. Codec ID/Info                            : UTF-8 Plain Text
  123. Duration                                 : 44 min 23 s
  124. Bit rate                                 : 80 b/s
  125. Frame rate                               : 0.239 FPS
  126. Count of elements                        : 637
  127. Stream size                              : 26.2 KiB (0%)
  128. Title                                    : Espa?ol (Latinoamericano)
  129. Language                                 : Spanish
  130. Default                                  : No
  131. Forced                                   : No
  132. Text #7
  133. ID                                       : 9
  134. Format                                   : UTF-8
  135. Codec ID                                 : S_TEXT/UTF8
  136. Codec ID/Info                            : UTF-8 Plain Text
  137. Duration                                 : 44 min 23 s
  138. Bit rate                                 : 85 b/s
  139. Frame rate                               : 0.239 FPS
  140. Count of elements                        : 636
  141. Stream size                              : 27.7 KiB (0%)
  142. Title                                    : Espa?ol
  143. Language                                 : Spanish
  144. Default                                  : No
  145. Forced                                   : No
  146. Text #8
  147. ID                                       : 10
  148. Format                                   : UTF-8
  149. Codec ID                                 : S_TEXT/UTF8
  150. Codec ID/Info                            : UTF-8 Plain Text
  151. Duration                                 : 44 min 23 s
  152. Bit rate                                 : 76 b/s
  153. Frame rate                               : 0.239 FPS
  154. Count of elements                        : 637
  155. Stream size                              : 24.9 KiB (0%)
  156. Title                                    : Suomi
  157. Language                                 : Finnish
  158. Default                                  : No
  159. Forced                                   : No
  160. Text #9
  161. ID                                       : 11
  162. Format                                   : UTF-8
  163. Codec ID                                 : S_TEXT/UTF8
  164. Codec ID/Info                            : UTF-8 Plain Text
  165. Duration                                 : 44 min 1 s
  166. Bit rate                                 : 79 b/s
  167. Frame rate                               : 0.294 FPS
  168. Count of elements                        : 776
  169. Stream size                              : 25.7 KiB (0%)
  170. Title                                    : Fran?ais
  171. Language                                 : French
  172. Default                                  : No
  173. Forced                                   : No
  174. Text #10
  175. ID                                       : 12
  176. Format                                   : UTF-8
  177. Codec ID                                 : S_TEXT/UTF8
  178. Codec ID/Info                            : UTF-8 Plain Text
  179. Duration                                 : 44 min 23 s
  180. Bit rate                                 : 81 b/s
  181. Frame rate                               : 0.239 FPS
  182. Count of elements                        : 637
  183. Stream size                              : 26.4 KiB (0%)
  184. Title                                    : Magyar
  185. Language                                 : Hungarian
  186. Default                                  : No
  187. Forced                                   : No
  188. Text #11
  189. ID                                       : 13
  190. Format                                   : UTF-8
  191. Codec ID                                 : S_TEXT/UTF8
  192. Codec ID/Info                            : UTF-8 Plain Text
  193. Duration                                 : 44 min 23 s
  194. Bit rate                                 : 80 b/s
  195. Frame rate                               : 0.239 FPS
  196. Count of elements                        : 636
  197. Stream size                              : 26.1 KiB (0%)
  198. Title                                    : Italiano
  199. Language                                 : Italian
  200. Default                                  : No
  201. Forced                                   : No
  202. Text #12
  203. ID                                       : 14
  204. Format                                   : UTF-8
  205. Codec ID                                 : S_TEXT/UTF8
  206. Codec ID/Info                            : UTF-8 Plain Text
  207. Duration                                 : 44 min 23 s
  208. Bit rate                                 : 78 b/s
  209. Frame rate                               : 0.262 FPS
  210. Count of elements                        : 699
  211. Stream size                              : 25.6 KiB (0%)
  212. Title                                    : Japanese
  213. Language                                 : Japanese
  214. Default                                  : No
  215. Forced                                   : No
  216. Text #13
  217. ID                                       : 15
  218. Format                                   : UTF-8
  219. Codec ID                                 : S_TEXT/UTF8
  220. Codec ID/Info                            : UTF-8 Plain Text
  221. Duration                                 : 44 min 23 s
  222. Bit rate                                 : 85 b/s
  223. Frame rate                               : 0.238 FPS
  224. Count of elements                        : 634
  225. Stream size                              : 27.8 KiB (0%)
  226. Title                                    : Korean
  227. Language                                 : Korean
  228. Default                                  : No
  229. Forced                                   : No
  230. Text #14
  231. ID                                       : 16
  232. Format                                   : UTF-8
  233. Codec ID                                 : S_TEXT/UTF8
  234. Codec ID/Info                            : UTF-8 Plain Text
  235. Duration                                 : 44 min 23 s
  236. Bit rate                                 : 70 b/s
  237. Frame rate                               : 0.213 FPS
  238. Count of elements                        : 568
  239. Stream size                              : 23.0 KiB (0%)
  240. Title                                    : Nederlands
  241. Language                                 : Dutch
  242. Default                                  : No
  243. Forced                                   : No
  244. Text #15
  245. ID                                       : 17
  246. Format                                   : UTF-8
  247. Codec ID                                 : S_TEXT/UTF8
  248. Codec ID/Info                            : UTF-8 Plain Text
  249. Duration                                 : 44 min 23 s
  250. Bit rate                                 : 76 b/s
  251. Frame rate                               : 0.239 FPS
  252. Count of elements                        : 637
  253. Stream size                              : 24.7 KiB (0%)
  254. Title                                    : Norsk
  255. Language                                 : Norwegian
  256. Default                                  : No
  257. Forced                                   : No
  258. Text #16
  259. ID                                       : 18
  260. Format                                   : UTF-8
  261. Codec ID                                 : S_TEXT/UTF8
  262. Codec ID/Info                            : UTF-8 Plain Text
  263. Duration                                 : 44 min 23 s
  264. Bit rate                                 : 80 b/s
  265. Frame rate                               : 0.239 FPS
  266. Count of elements                        : 637
  267. Stream size                              : 26.1 KiB (0%)
  268. Title                                    : Polski
  269. Language                                 : Polish
  270. Default                                  : No
  271. Forced                                   : No
  272. Text #17
  273. ID                                       : 19
  274. Format                                   : UTF-8
  275. Codec ID                                 : S_TEXT/UTF8
  276. Codec ID/Info                            : UTF-8 Plain Text
  277. Duration                                 : 44 min 23 s
  278. Bit rate                                 : 83 b/s
  279. Frame rate                               : 0.239 FPS
  280. Count of elements                        : 636
  281. Stream size                              : 27.1 KiB (0%)
  282. Title                                    : Português
  283. Language                                 : Portuguese
  284. Default                                  : No
  285. Forced                                   : No
  286. Text #18
  287. ID                                       : 20
  288. Format                                   : UTF-8
  289. Codec ID                                 : S_TEXT/UTF8
  290. Codec ID/Info                            : UTF-8 Plain Text
  291. Duration                                 : 44 min 23 s
  292. Bit rate                                 : 85 b/s
  293. Frame rate                               : 0.239 FPS
  294. Count of elements                        : 637
  295. Stream size                              : 27.8 KiB (0%)
  296. Title                                    : Português (Brasil)
  297. Language                                 : Portuguese
  298. Default                                  : No
  299. Forced                                   : No
  300. Text #19
  301. ID                                       : 21
  302. Format                                   : UTF-8
  303. Codec ID                                 : S_TEXT/UTF8
  304. Codec ID/Info                            : UTF-8 Plain Text
  305. Duration                                 : 44 min 39 s
  306. Bit rate                                 : 85 b/s
  307. Frame rate                               : 0.238 FPS
  308. Count of elements                        : 638
  309. Stream size                              : 27.9 KiB (0%)
  310. Title                                    : Roman?
  311. Language                                 : Romanian
  312. Default                                  : No
  313. Forced                                   : No
  314. Text #20
  315. ID                                       : 22
  316. Format                                   : UTF-8
  317. Codec ID                                 : S_TEXT/UTF8
  318. Codec ID/Info                            : UTF-8 Plain Text
  319. Duration                                 : 44 min 23 s
  320. Bit rate                                 : 78 b/s
  321. Frame rate                               : 0.239 FPS
  322. Count of elements                        : 637
  323. Stream size                              : 25.5 KiB (0%)
  324. Title                                    : Sloven?ina
  325. Language                                 : Slovak
  326. Default                                  : No
  327. Forced                                   : No
  328. Text #21
  329. ID                                       : 23
  330. Format                                   : UTF-8
  331. Codec ID                                 : S_TEXT/UTF8
  332. Codec ID/Info                            : UTF-8 Plain Text
  333. Duration                                 : 44 min 23 s
  334. Bit rate                                 : 76 b/s
  335. Frame rate                               : 0.239 FPS
  336. Count of elements                        : 637
  337. Stream size                              : 25.0 KiB (0%)
  338. Title                                    : Svenska
  339. Language                                 : Swedish
  340. Default                                  : No
  341. Forced                                   : No
  342. Text #22
  343. ID                                       : 24
  344. Format                                   : UTF-8
  345. Codec ID                                 : S_TEXT/UTF8
  346. Codec ID/Info                            : UTF-8 Plain Text
  347. Duration                                 : 44 min 23 s
  348. Bit rate                                 : 80 b/s
  349. Frame rate                               : 0.239 FPS
  350. Count of elements                        : 636
  351. Stream size                              : 26.3 KiB (0%)
  352. Title                                    : Türk?e
  353. Language                                 : Turkish
  354. Default                                  : No
  355. Forced                                   : No
  356. Text #23
  357. ID                                       : 25
  358. Format                                   : UTF-8
  359. Codec ID                                 : S_TEXT/UTF8
  360. Codec ID/Info                            : UTF-8 Plain Text
  361. Duration                                 : 44 min 23 s
  362. Bit rate                                 : 68 b/s
  363. Frame rate                               : 0.239 FPS
  364. Count of elements                        : 637
  365. Stream size                              : 22.3 KiB (0%)
  366. Title                                    : Chinese (Hong Kong)
  367. Language                                 : Chinese
  368. Default                                  : No
  369. Forced                                   : No
  370. Text #24
  371. ID                                       : 26
  372. Format                                   : UTF-8
  373. Codec ID                                 : S_TEXT/UTF8
  374. Codec ID/Info                            : UTF-8 Plain Text
  375. Duration                                 : 44 min 23 s
  376. Bit rate                                 : 65 b/s
  377. Frame rate                               : 0.239 FPS
  378. Count of elements                        : 636
  379. Stream size                              : 21.3 KiB (0%)
  380. Title                                    : Chinese (Traditional)
  381. Language                                 : Chinese
  382. Default                                  : No
  383. Forced                                   : No
  384. Text #25
  385. ID                                       : 27
  386. Format                                   : UTF-8
  387. Codec ID                                 : S_TEXT/UTF8
  388. Codec ID/Info                            : UTF-8 Plain Text
  389. Duration                                 : 44 min 23 s
  390. Bit rate                                 : 73 b/s
  391. Frame rate                               : 0.239 FPS
  392. Count of elements                        : 636
  393. Stream size                              : 24.0 KiB (0%)
  394. Title                                    : Chinese (Simplified)
  395. Language                                 : Chinese
  396. Default                                  : No
  397. Forced                                   : No
复制代码




                                       
                                       

                                       
                                       
                                       




LEGO.Star.Wars.Summer.Vacation.2022.2160p.DSNP.WEB-DL.x265.10bit.HDR.DDP5.1-SALT.torrent (13.95 KB, 下载次数: 0)
回复

使用道具 举报

懒得打字嘛,点击右侧快捷回复 【右侧内容,后台自定义】
您需要登录后才可以回帖 登录 | 立即注册

本版积分规则

Archiver|手机版|小黑屋| 中国高清网 |网站地图 

GMT+8, 2022-8-18 18:19 , Processed in 0.119804 second(s), 26 queries .

Powered by HDchina X3.4

Copyright 2017-2019©HDchina.All right reserved

返回顶部 联系我们