查看: 29|回复: 0

[2160p] 乐高星球大战:夏日假期 LEGO.Star.Wars.Summer.Vacation.2022.2160p.DSNP.WEB-DL.DDP5.1.DV.MKV.x265-SALT 5.27GB

[复制链接]
蓝光币
28 枚
发表于 2022-8-5 18:23:11 | 显示全部楼层 |阅读模式


◎标  题 乐高星球大战:夏日假期
◎译  名 LEGO星际大战:夏日假期(台) / The LEGO Holiday Special
◎片  名 Lego Star Wars: Summer Vacation
◎年  代 2022
◎产  地 美国
◎类  别 笑剧 / 行动 / 科幻 / 动画 / 奇异 / 冒险
◎语  言 英语
◎上映日期 2022-08-05(美国收集)
◎IMDb链接 https://www.imdb.com/title/tt20784210/
◎豆瓣链接 https://movie.douban.com/subject/35915734/
◎导  演 肯·坎宁安 Ken Cunningham
◎编  剧 大卫·谢恩 David Shayne
◎演  员 海伦·萨德勒 Helen Sadler
       杰克·格林 Jake Green
       凯莉·玛丽·陈 Kelly Marie Tran
       奥玛·本森·米勒 Omar Benson Miller
       安东尼·丹尼尔斯 Anthony Daniels
       比利·迪·威廉姆斯 Billy Dee Williams
       迪·布拉雷·贝克尔 Dee Bradley Baker
       詹姆斯·阿诺德·泰勒 James Arnold Taylor
       凯文·迈克尔·理查德森 Kevin Michael Richardson
       凯丽·卡伦 Kyliegh Curran
       马特·兰特尔 Matt Lanter
       马特·斯隆 Matt Sloan
       马修·伍德 Matthew Wood
       罗斯·马昆德 Ross Marquand
       谢尔碧·杨 Shelby Young
       特雷弗·德瓦 Trevor Devall
       托马斯·列农 Thomas Lennon
       保罗·F·汤普金斯 Paul F. Tompkins
       阿尔·杨科维克 'Weird Al' Yankovic
◎简  介

  《乐高星球大战:夏日假期》将于8月5日上线Disney+。
  1. Video
  2. ID                                       : 1
  3. Format                                   : HEVC
  4. Format/Info                              : High Efficiency Video Coding
  5. Format profile                           : Main [email protected]@High
  6. HDR format                               : Dolby Vision, Version 1.0, dvhe.05.06, BL+RPU
  7. Codec ID                                 : V_MPEGH/ISO/HEVC
  8. Duration                                 : 45 min 2 s
  9. Bit rate                                 : 16.5 Mb/s
  10. Width                                    : 3 840 pixels
  11. Height                                   : 2 160 pixels
  12. Display aspect ratio                     : 16:9
  13. Frame rate mode                          : Constant
  14. Frame rate                               : 24.000 FPS
  15. Color space                              : YUV
  16. Chroma subsampling                       : 4:2:0
  17. Bit depth                                : 10 bits
  18. Bits/(Pixel*Frame)                       : 0.083
  19. Stream size                              : 5.19 GiB (98%)
  20. Language                                 : English
  21. Default                                  : Yes
  22. Forced                                   : No
  23. Color range                              : Full
  24. Audio
  25. ID                                       : 2
  26. Format                                   : E-AC-3
  27. Format/Info                              : Enhanced AC-3
  28. Commercial name                          : Dolby Digital Plus
  29. Codec ID                                 : A_EAC3
  30. Duration                                 : 45 min 2 s
  31. Bit rate mode                            : Constant
  32. Bit rate                                 : 256 kb/s
  33. Channel(s)                               : 6 channels
  34. Channel layout                           : L R C LFE Ls Rs
  35. Sampling rate                            : 48.0 kHz
  36. Frame rate                               : 31.250 FPS (1536 SPF)
  37. Compression mode                         : Lossy
  38. Stream size                              : 82.5 MiB (2%)
  39. Language                                 : English
  40. Service kind                             : Complete Main
  41. Default                                  : Yes
  42. Forced                                   : No
  43. Text #1
  44. ID                                       : 3
  45. Format                                   : UTF-8
  46. Codec ID                                 : S_TEXT/UTF8
  47. Codec ID/Info                            : UTF-8 Plain Text
  48. Duration                                 : 43 min 57 s
  49. Bit rate                                 : 89 b/s
  50. Frame rate                               : 0.282 FPS
  51. Count of elements                        : 743
  52. Stream size                              : 29.0 KiB (0%)
  53. Title                                    : English (SDH)
  54. Language                                 : English
  55. Default                                  : No
  56. Forced                                   : No
  57. Text #2
  58. ID                                       : 4
  59. Format                                   : UTF-8
  60. Codec ID                                 : S_TEXT/UTF8
  61. Codec ID/Info                            : UTF-8 Plain Text
  62. Duration                                 : 44 min 23 s
  63. Bit rate                                 : 75 b/s
  64. Frame rate                               : 0.238 FPS
  65. Count of elements                        : 633
  66. Stream size                              : 24.7 KiB (0%)
  67. Title                                    : ?e?tina
  68. Language                                 : Czech
  69. Default                                  : No
  70. Forced                                   : No
  71. Text #3
  72. ID                                       : 5
  73. Format                                   : UTF-8
  74. Codec ID                                 : S_TEXT/UTF8
  75. Codec ID/Info                            : UTF-8 Plain Text
  76. Duration                                 : 44 min 23 s
  77. Bit rate                                 : 76 b/s
  78. Frame rate                               : 0.199 FPS
  79. Count of elements                        : 531
  80. Stream size                              : 25.0 KiB (0%)
  81. Title                                    : Dansk
  82. Language                                 : Danish
  83. Default                                  : No
  84. Forced                                   : No
  85. Text #4
  86. ID                                       : 6
  87. Format                                   : UTF-8
  88. Codec ID                                 : S_TEXT/UTF8
  89. Codec ID/Info                            : UTF-8 Plain Text
  90. Duration                                 : 44 min 23 s
  91. Bit rate                                 : 86 b/s
  92. Frame rate                               : 0.239 FPS
  93. Count of elements                        : 637
  94. Stream size                              : 28.0 KiB (0%)
  95. Title                                    : Deutsch
  96. Language                                 : German
  97. Default                                  : No
  98. Forced                                   : No
  99. Text #5
  100. ID                                       : 7
  101. Format                                   : UTF-8
  102. Codec ID                                 : S_TEXT/UTF8
  103. Codec ID/Info                            : UTF-8 Plain Text
  104. Duration                                 : 44 min 23 s
  105. Bit rate                                 : 142 b/s
  106. Frame rate                               : 0.239 FPS
  107. Count of elements                        : 636
  108. Stream size                              : 46.3 KiB (0%)
  109. Title                                    : Greek
  110. Language                                 : Greek
  111. Default                                  : No
  112. Forced                                   : No
  113. Text #6
  114. ID                                       : 8
  115. Format                                   : UTF-8
  116. Codec ID                                 : S_TEXT/UTF8
  117. Codec ID/Info                            : UTF-8 Plain Text
  118. Duration                                 : 44 min 23 s
  119. Bit rate                                 : 80 b/s
  120. Frame rate                               : 0.239 FPS
  121. Count of elements                        : 637
  122. Stream size                              : 26.2 KiB (0%)
  123. Title                                    : Espa?ol (Latinoamericano)
  124. Language                                 : Spanish
  125. Default                                  : No
  126. Forced                                   : No
  127. Text #7
  128. ID                                       : 9
  129. Format                                   : UTF-8
  130. Codec ID                                 : S_TEXT/UTF8
  131. Codec ID/Info                            : UTF-8 Plain Text
  132. Duration                                 : 44 min 23 s
  133. Bit rate                                 : 85 b/s
  134. Frame rate                               : 0.239 FPS
  135. Count of elements                        : 636
  136. Stream size                              : 27.7 KiB (0%)
  137. Title                                    : Espa?ol
  138. Language                                 : Spanish
  139. Default                                  : No
  140. Forced                                   : No
  141. Text #8
  142. ID                                       : 10
  143. Format                                   : UTF-8
  144. Codec ID                                 : S_TEXT/UTF8
  145. Codec ID/Info                            : UTF-8 Plain Text
  146. Duration                                 : 44 min 23 s
  147. Bit rate                                 : 76 b/s
  148. Frame rate                               : 0.239 FPS
  149. Count of elements                        : 637
  150. Stream size                              : 24.9 KiB (0%)
  151. Title                                    : Suomi
  152. Language                                 : Finnish
  153. Default                                  : No
  154. Forced                                   : No
  155. Text #9
  156. ID                                       : 11
  157. Format                                   : UTF-8
  158. Codec ID                                 : S_TEXT/UTF8
  159. Codec ID/Info                            : UTF-8 Plain Text
  160. Duration                                 : 44 min 1 s
  161. Bit rate                                 : 79 b/s
  162. Frame rate                               : 0.294 FPS
  163. Count of elements                        : 776
  164. Stream size                              : 25.7 KiB (0%)
  165. Title                                    : Fran?ais
  166. Language                                 : French
  167. Default                                  : No
  168. Forced                                   : No
  169. Text #10
  170. ID                                       : 12
  171. Format                                   : UTF-8
  172. Codec ID                                 : S_TEXT/UTF8
  173. Codec ID/Info                            : UTF-8 Plain Text
  174. Duration                                 : 44 min 23 s
  175. Bit rate                                 : 81 b/s
  176. Frame rate                               : 0.239 FPS
  177. Count of elements                        : 637
  178. Stream size                              : 26.4 KiB (0%)
  179. Title                                    : Magyar
  180. Language                                 : Hungarian
  181. Default                                  : No
  182. Forced                                   : No
  183. Text #11
  184. ID                                       : 13
  185. Format                                   : UTF-8
  186. Codec ID                                 : S_TEXT/UTF8
  187. Codec ID/Info                            : UTF-8 Plain Text
  188. Duration                                 : 44 min 23 s
  189. Bit rate                                 : 80 b/s
  190. Frame rate                               : 0.239 FPS
  191. Count of elements                        : 636
  192. Stream size                              : 26.1 KiB (0%)
  193. Title                                    : Italiano
  194. Language                                 : Italian
  195. Default                                  : No
  196. Forced                                   : No
  197. Text #12
  198. ID                                       : 14
  199. Format                                   : UTF-8
  200. Codec ID                                 : S_TEXT/UTF8
  201. Codec ID/Info                            : UTF-8 Plain Text
  202. Duration                                 : 44 min 23 s
  203. Bit rate                                 : 78 b/s
  204. Frame rate                               : 0.262 FPS
  205. Count of elements                        : 699
  206. Stream size                              : 25.6 KiB (0%)
  207. Title                                    : Japanese
  208. Language                                 : Japanese
  209. Default                                  : No
  210. Forced                                   : No
  211. Text #13
  212. ID                                       : 15
  213. Format                                   : UTF-8
  214. Codec ID                                 : S_TEXT/UTF8
  215. Codec ID/Info                            : UTF-8 Plain Text
  216. Duration                                 : 44 min 23 s
  217. Bit rate                                 : 85 b/s
  218. Frame rate                               : 0.238 FPS
  219. Count of elements                        : 634
  220. Stream size                              : 27.8 KiB (0%)
  221. Title                                    : Korean
  222. Language                                 : Korean
  223. Default                                  : No
  224. Forced                                   : No
  225. Text #14
  226. ID                                       : 16
  227. Format                                   : UTF-8
  228. Codec ID                                 : S_TEXT/UTF8
  229. Codec ID/Info                            : UTF-8 Plain Text
  230. Duration                                 : 44 min 23 s
  231. Bit rate                                 : 70 b/s
  232. Frame rate                               : 0.213 FPS
  233. Count of elements                        : 568
  234. Stream size                              : 23.0 KiB (0%)
  235. Title                                    : Nederlands
  236. Language                                 : Dutch
  237. Default                                  : No
  238. Forced                                   : No
  239. Text #15
  240. ID                                       : 17
  241. Format                                   : UTF-8
  242. Codec ID                                 : S_TEXT/UTF8
  243. Codec ID/Info                            : UTF-8 Plain Text
  244. Duration                                 : 44 min 23 s
  245. Bit rate                                 : 76 b/s
  246. Frame rate                               : 0.239 FPS
  247. Count of elements                        : 637
  248. Stream size                              : 24.7 KiB (0%)
  249. Title                                    : Norsk
  250. Language                                 : Norwegian
  251. Default                                  : No
  252. Forced                                   : No
  253. Text #16
  254. ID                                       : 18
  255. Format                                   : UTF-8
  256. Codec ID                                 : S_TEXT/UTF8
  257. Codec ID/Info                            : UTF-8 Plain Text
  258. Duration                                 : 44 min 23 s
  259. Bit rate                                 : 80 b/s
  260. Frame rate                               : 0.239 FPS
  261. Count of elements                        : 637
  262. Stream size                              : 26.1 KiB (0%)
  263. Title                                    : Polski
  264. Language                                 : Polish
  265. Default                                  : No
  266. Forced                                   : No
  267. Text #17
  268. ID                                       : 19
  269. Format                                   : UTF-8
  270. Codec ID                                 : S_TEXT/UTF8
  271. Codec ID/Info                            : UTF-8 Plain Text
  272. Duration                                 : 44 min 23 s
  273. Bit rate                                 : 83 b/s
  274. Frame rate                               : 0.239 FPS
  275. Count of elements                        : 636
  276. Stream size                              : 27.1 KiB (0%)
  277. Title                                    : Português
  278. Language                                 : Portuguese
  279. Default                                  : No
  280. Forced                                   : No
  281. Text #18
  282. ID                                       : 20
  283. Format                                   : UTF-8
  284. Codec ID                                 : S_TEXT/UTF8
  285. Codec ID/Info                            : UTF-8 Plain Text
  286. Duration                                 : 44 min 23 s
  287. Bit rate                                 : 85 b/s
  288. Frame rate                               : 0.239 FPS
  289. Count of elements                        : 637
  290. Stream size                              : 27.8 KiB (0%)
  291. Title                                    : Português (Brasil)
  292. Language                                 : Portuguese
  293. Default                                  : No
  294. Forced                                   : No
  295. Text #19
  296. ID                                       : 21
  297. Format                                   : UTF-8
  298. Codec ID                                 : S_TEXT/UTF8
  299. Codec ID/Info                            : UTF-8 Plain Text
  300. Duration                                 : 44 min 39 s
  301. Bit rate                                 : 85 b/s
  302. Frame rate                               : 0.238 FPS
  303. Count of elements                        : 638
  304. Stream size                              : 27.9 KiB (0%)
  305. Title                                    : Roman?
  306. Language                                 : Romanian
  307. Default                                  : No
  308. Forced                                   : No
  309. Text #20
  310. ID                                       : 22
  311. Format                                   : UTF-8
  312. Codec ID                                 : S_TEXT/UTF8
  313. Codec ID/Info                            : UTF-8 Plain Text
  314. Duration                                 : 44 min 23 s
  315. Bit rate                                 : 78 b/s
  316. Frame rate                               : 0.239 FPS
  317. Count of elements                        : 637
  318. Stream size                              : 25.5 KiB (0%)
  319. Title                                    : Sloven?ina
  320. Language                                 : Slovak
  321. Default                                  : No
  322. Forced                                   : No
  323. Text #21
  324. ID                                       : 23
  325. Format                                   : UTF-8
  326. Codec ID                                 : S_TEXT/UTF8
  327. Codec ID/Info                            : UTF-8 Plain Text
  328. Duration                                 : 44 min 23 s
  329. Bit rate                                 : 76 b/s
  330. Frame rate                               : 0.239 FPS
  331. Count of elements                        : 637
  332. Stream size                              : 25.0 KiB (0%)
  333. Title                                    : Svenska
  334. Language                                 : Swedish
  335. Default                                  : No
  336. Forced                                   : No
  337. Text #22
  338. ID                                       : 24
  339. Format                                   : UTF-8
  340. Codec ID                                 : S_TEXT/UTF8
  341. Codec ID/Info                            : UTF-8 Plain Text
  342. Duration                                 : 44 min 23 s
  343. Bit rate                                 : 80 b/s
  344. Frame rate                               : 0.239 FPS
  345. Count of elements                        : 636
  346. Stream size                              : 26.3 KiB (0%)
  347. Title                                    : Türk?e
  348. Language                                 : Turkish
  349. Default                                  : No
  350. Forced                                   : No
  351. Text #23
  352. ID                                       : 25
  353. Format                                   : UTF-8
  354. Codec ID                                 : S_TEXT/UTF8
  355. Codec ID/Info                            : UTF-8 Plain Text
  356. Duration                                 : 44 min 23 s
  357. Bit rate                                 : 68 b/s
  358. Frame rate                               : 0.239 FPS
  359. Count of elements                        : 637
  360. Stream size                              : 22.3 KiB (0%)
  361. Title                                    : Chinese (Hong Kong)
  362. Language                                 : Chinese
  363. Default                                  : No
  364. Forced                                   : No
  365. Text #24
  366. ID                                       : 26
  367. Format                                   : UTF-8
  368. Codec ID                                 : S_TEXT/UTF8
  369. Codec ID/Info                            : UTF-8 Plain Text
  370. Duration                                 : 44 min 23 s
  371. Bit rate                                 : 65 b/s
  372. Frame rate                               : 0.239 FPS
  373. Count of elements                        : 636
  374. Stream size                              : 21.3 KiB (0%)
  375. Title                                    : Chinese (Traditional)
  376. Language                                 : Chinese
  377. Default                                  : No
  378. Forced                                   : No
  379. Text #25
  380. ID                                       : 27
  381. Format                                   : UTF-8
  382. Codec ID                                 : S_TEXT/UTF8
  383. Codec ID/Info                            : UTF-8 Plain Text
  384. Duration                                 : 44 min 23 s
  385. Bit rate                                 : 73 b/s
  386. Frame rate                               : 0.239 FPS
  387. Count of elements                        : 636
  388. Stream size                              : 24.0 KiB (0%)
  389. Title                                    : Chinese (Simplified)
  390. Language                                 : Chinese
  391. Default                                  : No
  392. Forced                                   : No
复制代码




                                       
                                       

                                       
                                       
                                       




LEGO.Star.Wars.Summer.Vacation.2022.2160p.DSNP.WEB-DL.DDP5.1.DV.MKV.x265-SALT.torrent (13.94 KB, 下载次数: 0)
回复

使用道具 举报

懒得打字嘛,点击右侧快捷回复 【右侧内容,后台自定义】
您需要登录后才可以回帖 登录 | 立即注册

本版积分规则

Archiver|手机版|小黑屋| 中国高清网 |网站地图 

GMT+8, 2022-8-18 18:09 , Processed in 0.120849 second(s), 26 queries .

Powered by HDchina X3.4

Copyright 2017-2019©HDchina.All right reserved

返回顶部 联系我们