查看: 24|回复: 0

[2160p] 铁血战士:猎物 Prey.2022.DUBBED.COMANCHE.2160p.DSNP.WEB-DL.DDP5.1.Atmos.DV.MP4.x265-DVSUX 11.99GB

[复制链接]
蓝光币
28 枚
发表于 2022-8-5 18:22:57 | 显示全部楼层 |阅读模式


◎标  题 铁血战士:猎物
◎译  名 铁血战士5 / 终极战士:兽猎者(台) / 铁血战士:骷髅 / Skulls / 铁血战士:狩猎追击(港)
◎片  名 Prey
◎年  代 2022
◎产  地 美国
◎类  别 行动 / 科幻 / 可骇
◎语  言 英语
◎上映日期 2022-08-05(美国收集)
◎IMDb评分 6.4/10 (877人评价)
◎IMDb链接 https://www.imdb.com/title/tt11866324/
◎豆瓣链接 https://movie.douban.com/subject/35262994/
◎导  演 丹·特拉亨伯格 Dan Trachtenberg
◎演  员 安伯·明迪桑德 Amber Midthunder
       戴恩·迪利格罗 Dane DiLiegro
       斯蒂芬·马蒂亚斯 Stefany Mathias
       斯托米·基普 Stormee Kipp
       达寇塔·比弗 Dakota Beavers
       杰夫·卡特 Jeff Cutter
◎简  介

  Prey is coming to Hulu August 5                                       
                                    “Prey,” an all-new action-thriller from 20th Century Studios directed by Dan Trachtenberg (“The Boys,” “10 Cloverfield Lane”) and the newest entry in the “Predator” franchise, will stream August 5, 2022, exclusively on Hulu.                                       
                                                                           
                                    Set in the Comanche Nation 300 years ago, “Prey” is the story of a young woman, Naru, a fierce and highly skilled warrior....
  1. Video
  2. ID                                       : 1
  3. Format                                   : HEVC
  4. Format/Info                              : High Efficiency Video Coding
  5. Format profile                           : Main [email protected]@High
  6. HDR format                               : Dolby Vision, Version 1.0, dvhe.05.06, BL+RPU
  7. Codec ID                                 : dvhe
  8. Codec ID/Info                            : High Efficiency Video Coding with Dolby Vision
  9. Duration                                 : 1 h 39 min
  10. Bit rate                                 : 16.5 Mb/s
  11. Width                                    : 3 840 pixels
  12. Height                                   : 2 160 pixels
  13. Display aspect ratio                     : 16:9
  14. Frame rate mode                          : Constant
  15. Frame rate                               : 24.000 FPS
  16. Color space                              : YUV
  17. Chroma subsampling                       : 4:2:0
  18. Bit depth                                : 10 bits
  19. Bits/(Pixel*Frame)                       : 0.083
  20. Stream size                              : 11.5 GiB (96%)
  21. Default                                  : Yes
  22. Alternate group                          : 1
  23. Encoded date                             : UTC 2022-08-05 09:00:45
  24. Tagged date                              : UTC 2022-08-05 09:03:59
  25. Color range                              : Full
  26. Codec configuration box                  : hvcC+dvcC
  27. Audio
  28. ID                                       : 2
  29. Format                                   : E-AC-3 JOC
  30. Format/Info                              : Enhanced AC-3 with Joint Object Coding
  31. Commercial name                          : Dolby Digital Plus with Dolby Atmos
  32. Codec ID                                 : ec-3
  33. Duration                                 : 1 h 39 min
  34. Bit rate mode                            : Constant
  35. Bit rate                                 : 768 kb/s
  36. Maximum bit rate                         : 811 kb/s
  37. Channel(s)                               : 6 channels
  38. Channel layout                           : L R C LFE Ls Rs
  39. Sampling rate                            : 48.0 kHz
  40. Frame rate                               : 31.250 FPS (1536 SPF)
  41. Compression mode                         : Lossy
  42. Stream size                              : 547 MiB (4%)
  43. Title                                    : English
  44. Language                                 : English
  45. Service kind                             : Complete Main
  46. Default                                  : Yes
  47. Alternate group                          : 1
  48. Tagged date                              : UTC 2022-08-05 09:03:59
  49. Complexity index                         : Not present / 16
  50. Number of dynamic objects                : 15
  51. Bed channel count                        : 1 channel
  52. Bed channel configuration                : LFE
  53. Text #1
  54. ID                                       : 3
  55. Format                                   : Timed Text
  56. Codec ID                                 : tx3g
  57. Duration                                 : 1 h 31 min
  58. Bit rate mode                            : Variable
  59. Bit rate                                 : 0 b/s
  60. Frame rate                               : 0.001 FPS
  61. Stream size                              : 117 Bytes (0%)
  62. Title                                    : English
  63. Language                                 : English
  64. Forced                                   : No
  65. Encoded date                             : UTC 2022-08-05 09:03:58
  66. Tagged date                              : UTC 2022-08-05 09:03:59
  67. Text #2
  68. ID                                       : 4
  69. Format                                   : Timed Text
  70. Codec ID                                 : tx3g
  71. Duration                                 : 1 h 29 min
  72. Bit rate mode                            : Variable
  73. Bit rate                                 : 18 b/s
  74. Frame rate                               : 0.142 FPS
  75. Stream size                              : 11.6 KiB (0%)
  76. Title                                    : English
  77. Language                                 : English
  78. Forced                                   : No
  79. Encoded date                             : UTC 2022-08-05 09:03:58
  80. Tagged date                              : UTC 2022-08-05 09:03:59
  81. Text #3
  82. ID                                       : 5
  83. Format                                   : Timed Text
  84. Codec ID                                 : tx3g
  85. Duration                                 : 1 h 30 min
  86. Bit rate mode                            : Variable
  87. Bit rate                                 : 34 b/s
  88. Frame rate                               : 0.314 FPS
  89. Stream size                              : 22.4 KiB (0%)
  90. Title                                    : English
  91. Language                                 : English
  92. Forced                                   : No
  93. Encoded date                             : UTC 2022-08-05 09:03:58
  94. Tagged date                              : UTC 2022-08-05 09:03:59
  95. Text #4
  96. ID                                       : 6
  97. Format                                   : Timed Text
  98. Codec ID                                 : tx3g
  99. Duration                                 : 1 h 39 min
  100. Bit rate mode                            : Variable
  101. Bit rate                                 : 12 b/s
  102. Frame rate                               : 0.100 FPS
  103. Stream size                              : 9.04 KiB (0%)
  104. Title                                    : Chinese-Cantonese
  105. Language                                 : Chinese
  106. Forced                                   : No
  107. Encoded date                             : UTC 2022-08-05 09:03:58
  108. Tagged date                              : UTC 2022-08-05 09:03:59
  109. Text #5
  110. ID                                       : 7
  111. Format                                   : Timed Text
  112. Codec ID                                 : tx3g
  113. Duration                                 : 1 h 39 min
  114. Bit rate mode                            : Variable
  115. Bit rate                                 : 13 b/s
  116. Frame rate                               : 0.100 FPS
  117. Stream size                              : 9.43 KiB (0%)
  118. Title                                    : Chinese-Simplified
  119. Language                                 : Chinese
  120. Forced                                   : No
  121. Encoded date                             : UTC 2022-08-05 09:03:58
  122. Tagged date                              : UTC 2022-08-05 09:03:59
  123. Text #6
  124. ID                                       : 8
  125. Format                                   : Timed Text
  126. Codec ID                                 : tx3g
  127. Duration                                 : 1 h 39 min
  128. Bit rate mode                            : Variable
  129. Bit rate                                 : 12 b/s
  130. Frame rate                               : 0.100 FPS
  131. Stream size                              : 9.04 KiB (0%)
  132. Title                                    : Chinese-Traditional
  133. Language                                 : Chinese
  134. Forced                                   : No
  135. Encoded date                             : UTC 2022-08-05 09:03:58
  136. Tagged date                              : UTC 2022-08-05 09:03:59
  137. Text #7
  138. ID                                       : 9
  139. Format                                   : Timed Text
  140. Codec ID                                 : tx3g
  141. Duration                                 : 1 h 39 min
  142. Bit rate mode                            : Variable
  143. Bit rate                                 : 12 b/s
  144. Frame rate                               : 0.096 FPS
  145. Stream size                              : 8.83 KiB (0%)
  146. Title                                    : Czech
  147. Language                                 : Czech
  148. Forced                                   : No
  149. Encoded date                             : UTC 2022-08-05 09:03:58
  150. Tagged date                              : UTC 2022-08-05 09:03:59
  151. Text #8
  152. ID                                       : 10
  153. Format                                   : Timed Text
  154. Codec ID                                 : tx3g
  155. Duration                                 : 1 h 39 min
  156. Bit rate mode                            : Variable
  157. Bit rate                                 : 12 b/s
  158. Frame rate                               : 0.099 FPS
  159. Stream size                              : 8.80 KiB (0%)
  160. Title                                    : Danish
  161. Language                                 : Danish
  162. Forced                                   : No
  163. Encoded date                             : UTC 2022-08-05 09:03:58
  164. Tagged date                              : UTC 2022-08-05 09:03:59
  165. Text #9
  166. ID                                       : 11
  167. Format                                   : Timed Text
  168. Codec ID                                 : tx3g
  169. Duration                                 : 1 h 38 min
  170. Bit rate mode                            : Variable
  171. Bit rate                                 : 13 b/s
  172. Frame rate                               : 0.090 FPS
  173. Stream size                              : 9.10 KiB (0%)
  174. Title                                    : Dutch
  175. Language                                 : Dutch
  176. Forced                                   : No
  177. Encoded date                             : UTC 2022-08-05 09:03:58
  178. Tagged date                              : UTC 2022-08-05 09:03:59
  179. Text #10
  180. ID                                       : 12
  181. Format                                   : Timed Text
  182. Codec ID                                 : tx3g
  183. Duration                                 : 1 h 39 min
  184. Bit rate mode                            : Variable
  185. Bit rate                                 : 13 b/s
  186. Frame rate                               : 0.098 FPS
  187. Stream size                              : 9.44 KiB (0%)
  188. Title                                    : Finnish
  189. Language                                 : Finnish
  190. Forced                                   : No
  191. Encoded date                             : UTC 2022-08-05 09:03:58
  192. Tagged date                              : UTC 2022-08-05 09:03:59
  193. Text #11
  194. ID                                       : 13
  195. Format                                   : Timed Text
  196. Codec ID                                 : tx3g
  197. Duration                                 : 1 h 39 min
  198. Bit rate mode                            : Variable
  199. Bit rate                                 : 13 b/s
  200. Frame rate                               : 0.097 FPS
  201. Stream size                              : 9.31 KiB (0%)
  202. Title                                    : French
  203. Language                                 : French
  204. Forced                                   : No
  205. Encoded date                             : UTC 2022-08-05 09:03:58
  206. Tagged date                              : UTC 2022-08-05 09:03:59
  207. Text #12
  208. ID                                       : 14
  209. Format                                   : Timed Text
  210. Codec ID                                 : tx3g
  211. Duration                                 : 1 h 39 min
  212. Bit rate mode                            : Variable
  213. Bit rate                                 : 13 b/s
  214. Frame rate                               : 0.096 FPS
  215. Stream size                              : 9.29 KiB (0%)
  216. Title                                    : German
  217. Language                                 : German
  218. Forced                                   : No
  219. Encoded date                             : UTC 2022-08-05 09:03:58
  220. Tagged date                              : UTC 2022-08-05 09:03:59
  221. Text #13
  222. ID                                       : 15
  223. Format                                   : Timed Text
  224. Codec ID                                 : tx3g
  225. Duration                                 : 1 h 39 min
  226. Bit rate mode                            : Variable
  227. Bit rate                                 : 21 b/s
  228. Frame rate                               : 0.100 FPS
  229. Stream size                              : 15.2 KiB (0%)
  230. Title                                    : Greek
  231. Language                                 : Greek
  232. Forced                                   : No
  233. Encoded date                             : UTC 2022-08-05 09:03:58
  234. Tagged date                              : UTC 2022-08-05 09:03:59
  235. Text #14
  236. ID                                       : 16
  237. Format                                   : Timed Text
  238. Codec ID                                 : tx3g
  239. Duration                                 : 1 h 39 min
  240. Bit rate mode                            : Variable
  241. Bit rate                                 : 12 b/s
  242. Frame rate                               : 0.100 FPS
  243. Stream size                              : 9.03 KiB (0%)
  244. Title                                    : Hungarian
  245. Language                                 : Hungarian
  246. Forced                                   : No
  247. Encoded date                             : UTC 2022-08-05 09:03:58
  248. Tagged date                              : UTC 2022-08-05 09:03:59
  249. Text #15
  250. ID                                       : 17
  251. Format                                   : Timed Text
  252. Codec ID                                 : tx3g
  253. Duration                                 : 1 h 39 min
  254. Bit rate mode                            : Variable
  255. Bit rate                                 : 12 b/s
  256. Frame rate                               : 0.098 FPS
  257. Stream size                              : 8.50 KiB (0%)
  258. Title                                    : Italian
  259. Language                                 : Italian
  260. Forced                                   : No
  261. Encoded date                             : UTC 2022-08-05 09:03:58
  262. Tagged date                              : UTC 2022-08-05 09:03:59
  263. Text #16
  264. ID                                       : 18
  265. Format                                   : Timed Text
  266. Codec ID                                 : tx3g
  267. Duration                                 : 1 h 39 min
  268. Bit rate mode                            : Variable
  269. Bit rate                                 : 15 b/s
  270. Frame rate                               : 0.122 FPS
  271. Stream size                              : 10.7 KiB (0%)
  272. Title                                    : Japanese
  273. Language                                 : Japanese
  274. Forced                                   : No
  275. Encoded date                             : UTC 2022-08-05 09:03:58
  276. Tagged date                              : UTC 2022-08-05 09:03:59
  277. Text #17
  278. ID                                       : 19
  279. Format                                   : Timed Text
  280. Codec ID                                 : tx3g
  281. Duration                                 : 1 h 39 min
  282. Bit rate mode                            : Variable
  283. Bit rate                                 : 13 b/s
  284. Frame rate                               : 0.100 FPS
  285. Stream size                              : 9.68 KiB (0%)
  286. Title                                    : Korean
  287. Language                                 : Korean
  288. Forced                                   : No
  289. Encoded date                             : UTC 2022-08-05 09:03:58
  290. Tagged date                              : UTC 2022-08-05 09:03:59
  291. Text #18
  292. ID                                       : 20
  293. Format                                   : Timed Text
  294. Codec ID                                 : tx3g
  295. Duration                                 : 1 h 39 min
  296. Bit rate mode                            : Variable
  297. Bit rate                                 : 12 b/s
  298. Frame rate                               : 0.076 FPS
  299. Stream size                              : 9.01 KiB (0%)
  300. Title                                    : Norwegian
  301. Language                                 : Norwegian
  302. Forced                                   : No
  303. Encoded date                             : UTC 2022-08-05 09:03:58
  304. Tagged date                              : UTC 2022-08-05 09:03:59
  305. Text #19
  306. ID                                       : 21
  307. Format                                   : Timed Text
  308. Codec ID                                 : tx3g
  309. Duration                                 : 1 h 39 min
  310. Bit rate mode                            : Variable
  311. Bit rate                                 : 12 b/s
  312. Frame rate                               : 0.097 FPS
  313. Stream size                              : 8.88 KiB (0%)
  314. Title                                    : Polish
  315. Language                                 : Polish
  316. Forced                                   : No
  317. Encoded date                             : UTC 2022-08-05 09:03:58
  318. Tagged date                              : UTC 2022-08-05 09:03:59
  319. Text #20
  320. ID                                       : 22
  321. Format                                   : Timed Text
  322. Codec ID                                 : tx3g
  323. Duration                                 : 1 h 39 min
  324. Bit rate mode                            : Variable
  325. Bit rate                                 : 13 b/s
  326. Frame rate                               : 0.099 FPS
  327. Stream size                              : 9.37 KiB (0%)
  328. Title                                    : Portuguese
  329. Language                                 : Portuguese
  330. Forced                                   : No
  331. Encoded date                             : UTC 2022-08-05 09:03:59
  332. Tagged date                              : UTC 2022-08-05 09:03:59
  333. Text #21
  334. ID                                       : 23
  335. Format                                   : Timed Text
  336. Codec ID                                 : tx3g
  337. Duration                                 : 1 h 39 min
  338. Bit rate mode                            : Variable
  339. Bit rate                                 : 13 b/s
  340. Frame rate                               : 0.099 FPS
  341. Stream size                              : 9.24 KiB (0%)
  342. Title                                    : Portuguese-BR
  343. Language                                 : Portuguese
  344. Forced                                   : No
  345. Encoded date                             : UTC 2022-08-05 09:03:59
  346. Tagged date                              : UTC 2022-08-05 09:03:59
  347. Text #22
  348. ID                                       : 24
  349. Format                                   : Timed Text
  350. Codec ID                                 : tx3g
  351. Duration                                 : 1 h 39 min
  352. Bit rate mode                            : Variable
  353. Bit rate                                 : 12 b/s
  354. Frame rate                               : 0.087 FPS
  355. Stream size                              : 8.97 KiB (0%)
  356. Title                                    : Romanian
  357. Language                                 : Romanian
  358. Forced                                   : No
  359. Encoded date                             : UTC 2022-08-05 09:03:59
  360. Tagged date                              : UTC 2022-08-05 09:03:59
  361. Text #23
  362. ID                                       : 25
  363. Format                                   : Timed Text
  364. Codec ID                                 : tx3g
  365. Duration                                 : 1 h 39 min
  366. Bit rate mode                            : Variable
  367. Bit rate                                 : 12 b/s
  368. Frame rate                               : 0.100 FPS
  369. Stream size                              : 8.94 KiB (0%)
  370. Title                                    : Slovak
  371. Language                                 : Slovak
  372. Forced                                   : No
  373. Encoded date                             : UTC 2022-08-05 09:03:59
  374. Tagged date                              : UTC 2022-08-05 09:03:59
  375. Text #24
  376. ID                                       : 26
  377. Format                                   : Timed Text
  378. Codec ID                                 : tx3g
  379. Duration                                 : 1 h 39 min
  380. Bit rate mode                            : Variable
  381. Bit rate                                 : 12 b/s
  382. Frame rate                               : 0.100 FPS
  383. Stream size                              : 8.93 KiB (0%)
  384. Title                                    : Spanish
  385. Language                                 : Spanish
  386. Forced                                   : No
  387. Encoded date                             : UTC 2022-08-05 09:03:59
  388. Tagged date                              : UTC 2022-08-05 09:03:59
  389. Text #25
  390. ID                                       : 27
  391. Format                                   : Timed Text
  392. Codec ID                                 : tx3g
  393. Duration                                 : 1 h 39 min
  394. Bit rate mode                            : Variable
  395. Bit rate                                 : 13 b/s
  396. Frame rate                               : 0.100 FPS
  397. Stream size                              : 9.31 KiB (0%)
  398. Title                                    : Spanish-EU
  399. Language                                 : Spanish
  400. Forced                                   : No
  401. Encoded date                             : UTC 2022-08-05 09:03:59
  402. Tagged date                              : UTC 2022-08-05 09:03:59
  403. Text #26
  404. ID                                       : 28
  405. Format                                   : Timed Text
  406. Codec ID                                 : tx3g
  407. Duration                                 : 1 h 39 min
  408. Bit rate mode                            : Variable
  409. Bit rate                                 : 12 b/s
  410. Frame rate                               : 0.099 FPS
  411. Stream size                              : 8.81 KiB (0%)
  412. Title                                    : Swedish
  413. Language                                 : Swedish
  414. Forced                                   : No
  415. Encoded date                             : UTC 2022-08-05 09:03:59
  416. Tagged date                              : UTC 2022-08-05 09:03:59
  417. Text #27
  418. ID                                       : 29
  419. Format                                   : Timed Text
  420. Codec ID                                 : tx3g
  421. Duration                                 : 1 h 39 min
  422. Bit rate mode                            : Variable
  423. Bit rate                                 : 13 b/s
  424. Frame rate                               : 0.099 FPS
  425. Stream size                              : 9.33 KiB (0%)
  426. Title                                    : Turkish
  427. Language                                 : Turkish
  428. Forced                                   : No
  429. Encoded date                             : UTC 2022-08-05 09:03:59
  430. Tagged date                              : UTC 2022-08-05 09:03:59
复制代码





                                       
                                       

                                       
                                       
                                       




Prey.2022.DUBBED.COMANCHE.2160p.DSNP.WEB-DL.DDP5.1.Atmos.DV.MP4.x265-DVSUX.torrent (15.67 KB, 下载次数: 2)
回复

使用道具 举报

懒得打字嘛,点击右侧快捷回复 【右侧内容,后台自定义】
您需要登录后才可以回帖 登录 | 立即注册

本版积分规则

Archiver|手机版|小黑屋| 中国高清网 |网站地图 

GMT+8, 2022-8-18 18:19 , Processed in 0.124838 second(s), 26 queries .

Powered by HDchina X3.4

Copyright 2017-2019©HDchina.All right reserved

返回顶部 联系我们