查看: 12|回复: 0

[2160p] 夺命惊吓 Uncle.Sam.1996.2160p.BluRay.x265.10bit.SDR.DTS-HD.MA.TrueHD.7.1.Atmos-SWTYBLZ 43.92GB

[复制链接]
蓝光币
14 枚
发表于 3 天前 | 显示全部楼层 |阅读模式


◎标  题 夺命惊吓
◎译  名 魔鬼叔叔山姆
◎片  名 Uncle Sam
◎年  代 1997
◎产  地 美国
◎类  别 笑剧 / 可骇
◎语  言 英语
◎上映日期 1997-07-04
◎IMDb评分 4.4/10 (2686人评价)
◎IMDb链接 https://www.imdb.com/title/tt0118025/
◎豆瓣评分 5.6/10 (69人评价)
◎豆瓣链接 https://movie.douban.com/subject/1300490/
◎片  长 89 分钟
◎导  演 威廉·拉斯蒂格 William Lustig
◎编  剧 拉里·柯恩 Larry Cohen
◎演  员 Christopher Ogden Christopher Ogden
       摩根·保罗 Morgan Paull
       Anne Tremko Anne Tremko
       威廉·史姑娘 William Smith
       Mark Chadwick Mark Chadwick
       莱斯莉·尼尔 Leslie Neale
       扎卡里·麦克莱莫尔 Zachary McLemore
       David 'Shark' Fralick David 'Shark' Fralick
       P·J·索尔丝 P.J. Soles
       斯坦森·布莱特 Stanton Barrett
       Jason Adelman Jason Adelman
       罗伯特·福斯特 Robert Forster
       蒂姆斯·伯特姆斯 Timothy Bottoms
       拉奎尔·阿莱西 Raquel Alessi
       艾萨克·海耶斯 Isaac Hayes
       博·霍普金斯 Bo Hopkins
       George G. Braunstein George G. Braunstein
       Gina Fortunato Gina Fortunato
       鲍勃·穆拉夫斯基 Bob Murawski
       Laurence Barbera Laurence Barbera
       斯皮罗·拉扎托斯 Spiro Razatos
       鲍勃·穆拉夫斯基 Bob Murawski
◎简  介

  It's Fourth Of July Weekend, and the recently discovered corpse of Sgt. Sam Harper - killed by 'friendly fire' during the first Gulf War - is returned to his all-American hometown. But when Sam rises from the dead to punish the unpatriotic, only his young nephew and a bitter Korean War veteran (Soul icon Isaac Hayes of SHAFT and SOUTH PARK fame) can stop his red-blooded rampage...
  1. Video
  2. ID                                       : 1
  3. Format                                   : HEVC
  4. Format/Info                              : High Efficiency Video Coding
  5. Format profile                           : Main [email protected]@High
  6. Codec ID                                 : V_MPEGH/ISO/HEVC
  7. Duration                                 : 1 h 29 min
  8. Bit rate                                 : 62.0 Mb/s
  9. Width                                    : 3 840 pixels
  10. Height                                   : 1 606 pixels
  11. Display aspect ratio                     : 2.40:1
  12. Frame rate mode                          : Constant
  13. Frame rate                               : 23.976 (24000/1001/189150) FPS
  14. Color space                              : YUV
  15. Chroma subsampling                       : 4:2:0
  16. Bit depth                                : 10 bits
  17. Bits/(Pixel*Frame)                       : 0.419
  18. Stream size                              : 38.6 GiB (88%)
  19. Writing library                          : x265 3.0ed72af837053:[Windows][GCC 8.2.0][64 bit] 10bit
  20. Encoding settings                        : cpuid=1111039 / frame-threads=6 / numa-pools=40 / wpp / no-pmode / no-pme / no-psnr / no-ssim / log-level=2 / input-csp=1 / input-res=3840x1606 / interlace=0 / total-frames=128338 / level-idc=51 / high-tier=1 / uhd-bd=0 / ref=3 / no-allow-non-conformance / repeat-headers / annexb / aud / hrd / info / hash=0 / no-temporal-layers / no-open-gop / min-keyint=1 / keyint=24 / gop-lookahead=0 / bframes=4 / b-adapt=2 / b-pyramid / bframe-bias=0 / rc-lookahead=25 / lookahead-slices=4 / scenecut=40 / radl=0 / no-splice / no-intra-refresh / ctu=64 / min-cu-size=8 / no-rect / no-amp / max-tu-size=32 / tu-inter-depth=1 / tu-intra-depth=1 / limit-tu=0 / rdoq-level=0 / dynamic-rd=0.00 / no-ssim-rd / signhide / no-tskip / nr-intra=0 / nr-inter=0 / no-constrained-intra / strong-intra-smoothing / max-merge=2 / limit-refs=3 / no-limit-modes / me=1 / subme=2 / merange=57 / temporal-mvp / weightp / no-weightb / no-analyze-src-pics / deblock=0:0 / no-sao / no-sao-non-deblock / rd=3 / no-early-skip / rskip / no-fast-intra / no-tskip-fast / no-cu-lossless / no-b-intra / no-splitrd-skip / rdpenalty=0 / psy-rd=2.00 / psy-rdoq=0.00 / no-rd-refine / no-lossless / cbqpoffs=0 / crqpoffs=0 / rc=crf / crf=21.0 / qcomp=0.60 / qpstep=4 / stats-write=0 / stats-read=0 / vbv-maxrate=160000 / vbv-bufsize=160000 / vbv-init=0.9 / crf-max=0.0 / crf-min=0.0 / ipratio=1.40 / pbratio=1.30 / aq-mode=1 / aq-strength=1.00 / cutree / zone-count=0 / no-strict-cbr / qg-size=32 / no-rc-grain / qpmax=69 / qpmin=0 / no-const-vbv / sar=1 / overscan=0 / videoformat=5 / range=0 / colorprim=2 / transfer=2 / colormatrix=2 / chromaloc=0 / display-window=0 / max-cll=0,0 / min-luma=0 / max-luma=1023 / log2-max-poc-lsb=8 / vui-timing-info / vui-hrd-info / slices=1 / opt-qp-pps / opt-ref-list-length-pps / no-multi-pass-opt-rps / scenecut-bias=0.05 / no-opt-cu-delta-qp / no-aq-motion / no-hdr / no-hdr-opt / no-dhdr10-opt / no-idr-recovery-sei / analysis-reuse-level=5 / scale-factor=0 / refine-intra=0 / refine-inter=0 / refine-mv=0 / refine-ctu-distortion=0 / no-limit-sao / ctu-info=0 / no-lowpass-dct / refine-analysis-type=0 / copy-pic=1 / max-ausize-factor=1.0 / no-dynamic-refine / no-single-sei / no-hevc-aq / qp-adaptation-range=1.00
  21. Default                                  : Yes
  22. Forced                                   : No
  23. Audio #1
  24. ID                                       : 2
  25. ID in the original source medium         : 4352 (0x1100)
  26. Format                                   : MLP FBA 16-ch
  27. Format/Info                              : Meridian Lossless Packing FBA with 16-channel presentation
  28. Commercial name                          : Dolby TrueHD with Dolby Atmos
  29. Codec ID                                 : A_TRUEHD
  30. Duration                                 : 1 h 29 min
  31. Bit rate mode                            : Variable
  32. Bit rate                                 : 4 005 kb/s
  33. Maximum bit rate                         : 6 861 kb/s
  34. Channel(s)                               : 8 channels
  35. Channel layout                           : L R C LFE Ls Rs Lb Rb
  36. Sampling rate                            : 48.0 kHz
  37. Frame rate                               : 1 200.000 FPS (40 SPF)
  38. Bit depth                                : 24 bits
  39. Compression mode                         : Lossless
  40. Stream size                              : 2.49 GiB (6%)
  41. Title                                    : TrueHD 7.1 Atmos
  42. Language                                 : English
  43. Default                                  : Yes
  44. Forced                                   : No
  45. Original source medium                   : Blu-ray
  46. Number of dynamic objects                : 11
  47. Bed channel count                        : 1 channel
  48. Bed channel configuration                : LFE
  49. Audio #2
  50. ID                                       : 3
  51. Format                                   : DTS XLL
  52. Format/Info                              : Digital Theater Systems
  53. Commercial name                          : DTS-HD Master Audio
  54. Codec ID                                 : A_DTS
  55. Duration                                 : 1 h 29 min
  56. Bit rate mode                            : Variable
  57. Bit rate                                 : 3 880 kb/s
  58. Channel(s)                               : 8 channels
  59. Channel layout                           : C L R LFE Lb Rb Lss Rss
  60. Sampling rate                            : 48.0 kHz
  61. Frame rate                               : 93.750 FPS (512 SPF)
  62. Bit depth                                : 24 bits
  63. Compression mode                         : Lossless
  64. Stream size                              : 2.42 GiB (6%)
  65. Title                                    : DTS-HD MA 7.1
  66. Language                                 : English
  67. Default                                  : No
  68. Forced                                   : No
  69. Audio #3
  70. ID                                       : 4
  71. ID in the original source medium         : 4352 (0x1100)
  72. Format                                   : AC-3
  73. Format/Info                              : Audio Coding 3
  74. Commercial name                          : Dolby Digital
  75. Codec ID                                 : A_AC3
  76. Duration                                 : 1 h 29 min
  77. Bit rate mode                            : Constant
  78. Bit rate                                 : 384 kb/s
  79. Channel(s)                               : 6 channels
  80. Channel layout                           : L R C LFE Ls Rs
  81. Sampling rate                            : 48.0 kHz
  82. Frame rate                               : 31.250 FPS (1536 SPF)
  83. Compression mode                         : Lossy
  84. Stream size                              : 245 MiB (1%)
  85. Title                                    : DD 5.1
  86. Language                                 : English
  87. Service kind                             : Complete Main
  88. Default                                  : No
  89. Forced                                   : No
  90. Original source medium                   : Blu-ray
  91. Text #1
  92. ID                                       : 5
  93. Format                                   : UTF-8
  94. Codec ID                                 : S_TEXT/UTF8
  95. Codec ID/Info                            : UTF-8 Plain Text
  96. Duration                                 : 1 h 26 min
  97. Bit rate                                 : 46 b/s
  98. Count of elements                        : 844
  99. Stream size                              : 29.6 KiB (0%)
  100. Language                                 : English
  101. Default                                  : Yes
  102. Forced                                   : No
  103. Text #2
  104. ID                                       : 6
  105. Format                                   : UTF-8
  106. Codec ID                                 : S_TEXT/UTF8
  107. Codec ID/Info                            : UTF-8 Plain Text
  108. Duration                                 : 1 h 28 min
  109. Bit rate                                 : 51 b/s
  110. Count of elements                        : 960
  111. Stream size                              : 33.2 KiB (0%)
  112. Title                                    : SDH
  113. Language                                 : English
  114. Default                                  : No
  115. Forced                                   : No
  116. Text #3
  117. ID                                       : 7
  118. ID in the original source medium         : 4768 (0x12A0)
  119. Format                                   : PGS
  120. Muxing mode                              : zlib
  121. Codec ID                                 : S_HDMV/PGS
  122. Codec ID/Info                            : Picture based subtitle format used on BDs/HD-DVDs
  123. Duration                                 : 1 h 28 min
  124. Bit rate                                 : 34.1 kb/s
  125. Count of elements                        : 1930
  126. Stream size                              : 21.6 MiB (0%)
  127. Language                                 : English
  128. Default                                  : No
  129. Forced                                   : No
  130. Original source medium                   : Blu-ray
  131. Text #4
  132. ID                                       : 8
  133. ID in the original source medium         : 4769 (0x12A1)
  134. Format                                   : PGS
  135. Muxing mode                              : zlib
  136. Codec ID                                 : S_HDMV/PGS
  137. Codec ID/Info                            : Picture based subtitle format used on BDs/HD-DVDs
  138. Duration                                 : 1 h 28 min
  139. Bit rate                                 : 28.7 kb/s
  140. Count of elements                        : 1608
  141. Stream size                              : 18.1 MiB (0%)
  142. Language                                 : French
  143. Default                                  : No
  144. Forced                                   : No
  145. Original source medium                   : Blu-ray
  146. Text #5
  147. ID                                       : 9
  148. ID in the original source medium         : 4770 (0x12A2)
  149. Format                                   : PGS
  150. Muxing mode                              : zlib
  151. Codec ID                                 : S_HDMV/PGS
  152. Codec ID/Info                            : Picture based subtitle format used on BDs/HD-DVDs
  153. Duration                                 : 1 h 28 min
  154. Bit rate                                 : 28.2 kb/s
  155. Count of elements                        : 1612
  156. Stream size                              : 17.8 MiB (0%)
  157. Language                                 : Spanish
  158. Default                                  : No
  159. Forced                                   : No
  160. Original source medium                   : Blu-ray
  161. Menu
  162. 00:00:00.000                             : en:Chapter 01
  163. 00:04:47.453                             : en:Chapter 02
  164. 00:11:42.493                             : en:Chapter 03
  165. 00:15:54.244                             : en:Chapter 04
  166. 00:22:59.795                             : en:Chapter 05
  167. 00:28:27.372                             : en:Chapter 06
  168. 00:35:20.701                             : en:Chapter 07
  169. 00:39:33.037                             : en:Chapter 08
  170. 00:42:53.404                             : en:Chapter 09
  171. 00:45:57.254                             : en:Chapter 10
  172. 00:48:21.690                             : en:Chapter 11
  173. 00:52:07.374                             : en:Chapter 12
  174. 00:55:22.485                             : en:Chapter 13
  175. 00:59:05.375                             : en:Chapter 14
  176. 01:02:28.494                             : en:Chapter 15
  177. 01:08:39.156                             : en:Chapter 16
  178. 01:16:32.087                             : en:Chapter 17
  179. 01:20:41.962                             : en:Chapter 18
  180. 01:25:23.993                             : en:Chapter 19
复制代码









                                       
                                       

                                       
                                       
                                       




Uncle.Sam.1996.2160p.BluRay.x265.10bit.SDR.DTS-HD.MA.TrueHD.7.1.Atmos-SWTYBLZ.torrent (55.63 KB, 下载次数: 0)
回复

使用道具 举报

懒得打字嘛,点击右侧快捷回复 【右侧内容,后台自定义】
您需要登录后才可以回帖 登录 | 立即注册

本版积分规则

Archiver|手机版|小黑屋| 中国高清网 |网站地图 

GMT+8, 2022-6-27 12:58 , Processed in 0.103845 second(s), 26 queries .

Powered by HDchina X3.4

Copyright 2017-2019©HDchina.All right reserved

返回顶部 联系我们