查看: 13|回复: 0

[2160p] 坏蛋联盟 The.Bad.Guys.2022.2160p.BluRay.x265.10bit.SDR.DTS-HD.MA.TrueHD.7.1.Atmos-SWTYBLZ 21.11GB

[复制链接]
蓝光币
14 枚
发表于 3 天前 | 显示全部楼层 |阅读模式


◎标  题 好人同盟
◎译  名 大好人 / 坏家伙 / Bad Guys
◎片  名 The Bad Guys
◎年  代 2022
◎产  地 美国
◎类  别 笑剧 / 动画 / 冒险
◎语  言 英语
◎上映日期 2022-04-29(中国大陆) / 2022-03-17(阿根廷) / 2022-04-22(美国)
◎IMDb评分 6.9/10 (9321人评价)
◎IMDb链接 https://www.imdb.com/title/tt8115900/
◎豆瓣链接 https://movie.douban.com/subject/30165311/
◎片  长 100分钟
◎导  演 彼埃尔·佩里菲尔 Pierre Perifel
◎编  剧 艾伦·布拉培 Aaron Blabey
       伊坦·柯亨 Etan Cohen
       尤尼·布伦纳 Yoni Brenner
       希拉里·温斯顿 Hilary Winston
◎演  员 山姆·洛克威尔 Sam Rockwell
       马克·马龙 Marc Maron
       奥卡菲娜 Awkwafina
       克雷格·罗宾森 Craig Robinson
       安东尼·拉莫斯 Anthony Ramos
       理查德·艾欧阿德 Richard Ayoade
       莎姬·贝兹 Zazie Beetz
       艾利克斯·布诺斯町 Alex Borstein
       莉莉·辛格 Lilly Singh
       芭芭拉·古德森 Barbara Goodson
       迪娜·莫罗 Dina Morrone
       迈克尔·高德尔 Michael Godere
       凯莉·库尼 Kelly Cooney
       沃尔特·道恩 Walt Dohrn
       戴维·P·史姑娘 David P. Smith
◎简  介

  故事的配角是五个无恶不作的好人——风姿潇洒的窃匪“大坏狼”、孤陋寡闻的保险箱窃贼“贪心蛇”、冷静沉稳的伪装大师“美肚鲨”、急躁易怒的打手“食人鱼”、伶牙俐齿的黑客专家“骇客蛛”闪亮退场,他们是最污名昭著的“好人同盟”。他们平常威风八面,四周作案,使人闻风丧胆。直到某一天,他们忽然想成为榜样百姓,但是转型路途甚是艰难,且意外层见叠出,使人啼笑皆非。
  1. Video
  2. ID                                       : 1
  3. Format                                   : HEVC
  4. Format/Info                              : High Efficiency Video Coding
  5. Format profile                           : Main [email protected]@High
  6. Codec ID                                 : V_MPEGH/ISO/HEVC
  7. Duration                                 : 1 h 40 min
  8. Bit rate                                 : 22.3 Mb/s
  9. Width                                    : 3 840 pixels
  10. Height                                   : 1 608 pixels
  11. Display aspect ratio                     : 2.40:1
  12. Frame rate mode                          : Constant
  13. Frame rate                               : 23.976 (24000/1001/189150) FPS
  14. Color space                              : YUV
  15. Chroma subsampling                       : 4:2:0
  16. Bit depth                                : 10 bits
  17. Bits/(Pixel*Frame)                       : 0.151
  18. Stream size                              : 15.6 GiB (74%)
  19. Writing library                          : x265 3.0ed72af837053:[Windows][GCC 8.2.0][64 bit] 10bit
  20. Encoding settings                        : cpuid=1111039 / frame-threads=6 / numa-pools=40 / wpp / no-pmode / no-pme / no-psnr / no-ssim / log-level=2 / input-csp=1 / input-res=3840x1608 / interlace=0 / total-frames=144024 / level-idc=51 / high-tier=1 / uhd-bd=0 / ref=3 / no-allow-non-conformance / repeat-headers / annexb / aud / hrd / info / hash=0 / no-temporal-layers / no-open-gop / min-keyint=1 / keyint=24 / gop-lookahead=0 / bframes=6 / b-adapt=2 / b-pyramid / bframe-bias=0 / rc-lookahead=25 / lookahead-slices=4 / scenecut=40 / radl=0 / no-splice / no-intra-refresh / ctu=64 / min-cu-size=8 / no-rect / no-amp / max-tu-size=32 / tu-inter-depth=1 / tu-intra-depth=1 / limit-tu=0 / rdoq-level=0 / dynamic-rd=0.00 / no-ssim-rd / signhide / no-tskip / nr-intra=0 / nr-inter=0 / no-constrained-intra / strong-intra-smoothing / max-merge=2 / limit-refs=3 / no-limit-modes / me=1 / subme=2 / merange=57 / temporal-mvp / weightp / no-weightb / no-analyze-src-pics / deblock=1:1 / no-sao / no-sao-non-deblock / rd=3 / no-early-skip / rskip / no-fast-intra / no-tskip-fast / no-cu-lossless / no-b-intra / no-splitrd-skip / rdpenalty=0 / psy-rd=0.40 / psy-rdoq=0.00 / no-rd-refine / no-lossless / cbqpoffs=0 / crqpoffs=0 / rc=crf / crf=14.0 / qcomp=0.60 / qpstep=4 / stats-write=0 / stats-read=0 / vbv-maxrate=160000 / vbv-bufsize=160000 / vbv-init=0.9 / crf-max=0.0 / crf-min=0.0 / ipratio=1.40 / pbratio=1.30 / aq-mode=1 / aq-strength=0.40 / cutree / zone-count=0 / no-strict-cbr / qg-size=32 / no-rc-grain / qpmax=69 / qpmin=0 / no-const-vbv / sar=1 / overscan=0 / videoformat=5 / range=0 / colorprim=2 / transfer=2 / colormatrix=2 / chromaloc=0 / display-window=0 / max-cll=0,0 / min-luma=0 / max-luma=1023 / log2-max-poc-lsb=8 / vui-timing-info / vui-hrd-info / slices=1 / opt-qp-pps / opt-ref-list-length-pps / no-multi-pass-opt-rps / scenecut-bias=0.05 / no-opt-cu-delta-qp / no-aq-motion / no-hdr / no-hdr-opt / no-dhdr10-opt / no-idr-recovery-sei / analysis-reuse-level=5 / scale-factor=0 / refine-intra=0 / refine-inter=0 / refine-mv=0 / refine-ctu-distortion=0 / no-limit-sao / ctu-info=0 / no-lowpass-dct / refine-analysis-type=0 / copy-pic=1 / max-ausize-factor=1.0 / no-dynamic-refine / no-single-sei / no-hevc-aq / qp-adaptation-range=1.00
  21. Default                                  : Yes
  22. Forced                                   : No
  23. Audio #1
  24. ID                                       : 2
  25. ID in the original source medium         : 4352 (0x1100)
  26. Format                                   : MLP FBA 16-ch
  27. Format/Info                              : Meridian Lossless Packing FBA with 16-channel presentation
  28. Commercial name                          : Dolby TrueHD with Dolby Atmos
  29. Codec ID                                 : A_TRUEHD
  30. Duration                                 : 1 h 40 min
  31. Bit rate mode                            : Variable
  32. Bit rate                                 : 3 166 kb/s
  33. Maximum bit rate                         : 4 686 kb/s
  34. Channel(s)                               : 8 channels
  35. Channel layout                           : L R C LFE Ls Rs Lb Rb
  36. Sampling rate                            : 48.0 kHz
  37. Frame rate                               : 1 200.000 FPS (40 SPF)
  38. Bit depth                                : 24 bits
  39. Compression mode                         : Lossless
  40. Stream size                              : 2.21 GiB (11%)
  41. Title                                    : TrueHD 7.1 Atmos
  42. Language                                 : English
  43. Default                                  : Yes
  44. Forced                                   : No
  45. Original source medium                   : Blu-ray
  46. Number of dynamic objects                : 11
  47. Bed channel count                        : 1 channel
  48. Bed channel configuration                : LFE
  49. Audio #2
  50. ID                                       : 3
  51. Format                                   : DTS XLL
  52. Format/Info                              : Digital Theater Systems
  53. Commercial name                          : DTS-HD Master Audio
  54. Codec ID                                 : A_DTS
  55. Duration                                 : 1 h 40 min
  56. Bit rate mode                            : Variable
  57. Bit rate                                 : 3 969 kb/s
  58. Channel(s)                               : 8 channels
  59. Channel layout                           : C L R LFE Lb Rb Lss Rss
  60. Sampling rate                            : 48.0 kHz
  61. Frame rate                               : 93.750 FPS (512 SPF)
  62. Bit depth                                : 24 bits
  63. Compression mode                         : Lossless
  64. Stream size                              : 2.78 GiB (13%)
  65. Title                                    : DTS-HD MA 7.1
  66. Language                                 : English
  67. Default                                  : No
  68. Forced                                   : No
  69. Audio #3
  70. ID                                       : 4
  71. ID in the original source medium         : 4352 (0x1100)
  72. Format                                   : AC-3
  73. Format/Info                              : Audio Coding 3
  74. Commercial name                          : Dolby Digital
  75. Codec ID                                 : A_AC3
  76. Duration                                 : 1 h 40 min
  77. Bit rate mode                            : Constant
  78. Bit rate                                 : 448 kb/s
  79. Channel(s)                               : 6 channels
  80. Channel layout                           : L R C LFE Ls Rs
  81. Sampling rate                            : 48.0 kHz
  82. Frame rate                               : 31.250 FPS (1536 SPF)
  83. Compression mode                         : Lossy
  84. Stream size                              : 321 MiB (1%)
  85. Title                                    : DD 5.1
  86. Language                                 : English
  87. Service kind                             : Complete Main
  88. Default                                  : No
  89. Forced                                   : No
  90. Original source medium                   : Blu-ray
  91. Text #1
  92. ID                                       : 5
  93. Format                                   : UTF-8
  94. Codec ID                                 : S_TEXT/UTF8
  95. Codec ID/Info                            : UTF-8 Plain Text
  96. Duration                                 : 1 h 39 min
  97. Bit rate                                 : 73 b/s
  98. Count of elements                        : 1747
  99. Stream size                              : 53.7 KiB (0%)
  100. Language                                 : English
  101. Default                                  : Yes
  102. Forced                                   : No
  103. Text #2
  104. ID                                       : 6
  105. Format                                   : UTF-8
  106. Codec ID                                 : S_TEXT/UTF8
  107. Codec ID/Info                            : UTF-8 Plain Text
  108. Duration                                 : 1 h 39 min
  109. Bit rate                                 : 82 b/s
  110. Count of elements                        : 1953
  111. Stream size                              : 60.3 KiB (0%)
  112. Title                                    : SDH
  113. Language                                 : English
  114. Default                                  : No
  115. Forced                                   : No
  116. Text #3
  117. ID                                       : 7
  118. ID in the original source medium         : 4768 (0x12A0)
  119. Format                                   : PGS
  120. Muxing mode                              : zlib
  121. Codec ID                                 : S_HDMV/PGS
  122. Codec ID/Info                            : Picture based subtitle format used on BDs/HD-DVDs
  123. Duration                                 : 1 h 39 min
  124. Bit rate                                 : 57.6 kb/s
  125. Count of elements                        : 3934
  126. Stream size                              : 40.9 MiB (0%)
  127. Language                                 : English
  128. Default                                  : No
  129. Forced                                   : No
  130. Original source medium                   : Blu-ray
  131. Text #4
  132. ID                                       : 8
  133. ID in the original source medium         : 4769 (0x12A1)
  134. Format                                   : PGS
  135. Muxing mode                              : zlib
  136. Codec ID                                 : S_HDMV/PGS
  137. Codec ID/Info                            : Picture based subtitle format used on BDs/HD-DVDs
  138. Duration                                 : 1 h 39 min
  139. Bit rate                                 : 48.1 kb/s
  140. Count of elements                        : 3378
  141. Stream size                              : 34.2 MiB (0%)
  142. Language                                 : Spanish
  143. Default                                  : No
  144. Forced                                   : No
  145. Original source medium                   : Blu-ray
  146. Text #5
  147. ID                                       : 9
  148. ID in the original source medium         : 4770 (0x12A2)
  149. Format                                   : PGS
  150. Muxing mode                              : zlib
  151. Codec ID                                 : S_HDMV/PGS
  152. Codec ID/Info                            : Picture based subtitle format used on BDs/HD-DVDs
  153. Duration                                 : 1 h 39 min
  154. Bit rate                                 : 49.4 kb/s
  155. Count of elements                        : 3330
  156. Stream size                              : 35.2 MiB (0%)
  157. Language                                 : French
  158. Default                                  : No
  159. Forced                                   : No
  160. Original source medium                   : Blu-ray
  161. Text #6
  162. ID                                       : 10
  163. ID in the original source medium         : 4771 (0x12A3)
  164. Format                                   : PGS
  165. Muxing mode                              : zlib
  166. Codec ID                                 : S_HDMV/PGS
  167. Codec ID/Info                            : Picture based subtitle format used on BDs/HD-DVDs
  168. Duration                                 : 1 h 39 min
  169. Bit rate                                 : 868 b/s
  170. Count of elements                        : 48
  171. Stream size                              : 631 KiB (0%)
  172. Title                                    : FORCED
  173. Language                                 : Spanish
  174. Default                                  : No
  175. Forced                                   : No
  176. Original source medium                   : Blu-ray
  177. Text #7
  178. ID                                       : 11
  179. ID in the original source medium         : 4772 (0x12A4)
  180. Format                                   : PGS
  181. Muxing mode                              : zlib
  182. Codec ID                                 : S_HDMV/PGS
  183. Codec ID/Info                            : Picture based subtitle format used on BDs/HD-DVDs
  184. Duration                                 : 1 h 36 min
  185. Bit rate                                 : 626 b/s
  186. Count of elements                        : 44
  187. Stream size                              : 442 KiB (0%)
  188. Title                                    : FORCED
  189. Language                                 : French
  190. Default                                  : No
  191. Forced                                   : No
  192. Original source medium                   : Blu-ray
  193. Menu
  194. 00:00:00.000                             : en:Chapter 01
  195. 00:03:09.314                             : en:Chapter 02
  196. 00:09:08.839                             : en:Chapter 03
  197. 00:14:07.847                             : en:Chapter 04
  198. 00:20:35.400                             : en:Chapter 05
  199. 00:27:24.684                             : en:Chapter 06
  200. 00:32:08.760                             : en:Chapter 07
  201. 00:36:16.424                             : en:Chapter 08
  202. 00:41:26.400                             : en:Chapter 09
  203. 00:45:50.289                             : en:Chapter 10
  204. 00:49:08.737                             : en:Chapter 11
  205. 00:55:01.047                             : en:Chapter 12
  206. 00:58:38.973                             : en:Chapter 13
  207. 01:05:41.020                             : en:Chapter 14
  208. 01:10:36.232                             : en:Chapter 15
  209. 01:12:40.814                             : en:Chapter 16
  210. 01:15:45.123                             : en:Chapter 17
  211. 01:20:24.820                             : en:Chapter 18
  212. 01:25:28.581                             : en:Chapter 19
  213. 01:30:56.159                             : en:Chapter 20
复制代码






                                       
                                       

                                       
                                       
                                       




The.Bad.Guys.2022.2160p.BluRay.x265.10bit.SDR.DTS-HD.MA.TrueHD.7.1.Atmos-SWTYBLZ.torrent (27.14 KB, 下载次数: 0)
回复

使用道具 举报

懒得打字嘛,点击右侧快捷回复 【右侧内容,后台自定义】
您需要登录后才可以回帖 登录 | 立即注册

本版积分规则

Archiver|手机版|小黑屋| 中国高清网 |网站地图 

GMT+8, 2022-6-27 14:28 , Processed in 0.109774 second(s), 26 queries .

Powered by HDchina X3.4

Copyright 2017-2019©HDchina.All right reserved

返回顶部 联系我们