查看: 16|回复: 0

[2160p] 天才不能承受之重 The.Unbearable.Weight.of.Massive.Talent.2022.2160p.BluRay.x265.10bit.SDR.DTS-HD.MA.TrueHD.7.1.Atmos-SWTYBLZ 32.03GB

[复制链接]
蓝光币
14 枚
发表于 3 天前 | 显示全部楼层 |阅读模式


◎标  题 天赋不能承受之重
◎译  名 超重天赋 / 超吉使命(台) / 丧尽癫才(港) / 天赋没法承受之重 / 不能承受的天赋之重
◎片  名 The Unbearable Weight of Massive Talent
◎年  代 2022
◎产  地 美国
◎类  别 笑剧 / 行动 / 惊悚 / 犯罪
◎语  言 英语
◎上映日期 2022-03-12(西南偏南电影节) / 2022-04-22(美国)
◎IMDb评分 7.4/10 (21820人评价)
◎IMDb链接 https://www.imdb.com/title/tt11291274/
◎豆瓣评分 7.2/10 (1107人评价)
◎豆瓣链接 https://movie.douban.com/subject/34890458/
◎片  长 107分钟
◎导  演 汤姆·戈米肯 Tom Gormican
◎编  剧 汤姆·戈米肯 Tom Gormican
       凯文·埃滕 Kevin Etten
◎演  员 尼古拉斯·凯奇 Nicolas Cage
       佩德罗·帕斯卡 Pedro Pascal
       蒂凡尼·哈迪斯 Tiffany Haddish
       莎朗·豪根 Sharon Horgan
       帕科·莱昂 Paco León
       尼尔·帕特里克·哈里斯 Neil Patrick Harris
       莉莉·莫·辛 Lily Mo Sheen
       亚历桑德拉·马斯特罗纳迪 Alessandra Mastronardi
       雅各布·西皮奥 Jacob Scipio
       卡特琳·万科娃 Katrin Vankova
       黛米·摩尔 Demi Moore
       安娜·麦克唐纳 Anna MacDonald
       大卫·戈登·格林 David Gordon Green
       伊克·巴里霍尔兹 Ike Barinholtz
       卢克·麦昆 Luke McQueen
       乔安娜·波宾 Joanna Bobin
       曼纽尔陶勒 Manuel Tallafé
       里卡德·巴拉达 Ricard Balada
       杰米·奥多尼斯 Jaime Ordóñez
       丽贝卡·芬奇 Rebecca Finch
       卡罗琳·博尔顿 Caroline Boulton
       比约恩·弗赖贝格 Björn Freiberg
       艾丽·简 Eli Jane
       哈里·陶乐西 Harry Taurasi
       András Korcsmáros András Korcsmáros
       尼克·威特曼 Nick Wittman
       帕科·德尔加多 Paco Delgado
◎简  介

  尼古拉斯·凯奇(Nicolas Cage)有新片了,此次他要在电影里演自己。                                       
                                    该片配角就是尼古拉斯·凯奇本人,他疯狂的渴望在昆汀·塔伦蒂诺的下部电影里获得一个脚色,他经常会和自己脑海中一个90年月的自己对话,后者不竭吐槽他“总是接烂片”、“再也不是昔时阿谁电影明星”了。                                       
                                    报告破产边沿的凯奇为了100万美圆的报酬去加入一个亿万富翁粉丝(佩德罗·帕斯卡 饰)的生日派对,但这位富豪是一个危险的毒枭。当凯奇被一位CIA奸细招募后,工作发生了意想不到的改变,为了拯救自己和亲人,他被迫出演一个终生难忘的脚色——尼古拉斯·凯奇,用他最具标志性和最受爱好的银幕脚色来实行自己的传奇人生。                                       
                                    《才华不能承受之重》会有多个桥段向凯奇的代表作致敬,包括《分开拉斯维加斯》(Leaving Las Vegas)、《变脸》(Face-Off)、《极速60秒》(Gone in 60 ...
  1. Video
  2. ID                                       : 1
  3. Format                                   : HEVC
  4. Format/Info                              : High Efficiency Video Coding
  5. Format profile                           : Main [email protected]@High
  6. Codec ID                                 : V_MPEGH/ISO/HEVC
  7. Duration                                 : 1 h 46 min
  8. Bit rate                                 : 31.8 Mb/s
  9. Width                                    : 3 840 pixels
  10. Height                                   : 1 606 pixels
  11. Display aspect ratio                     : 2.40:1
  12. Frame rate mode                          : Constant
  13. Frame rate                               : 23.976 (24000/1001/189150) FPS
  14. Color space                              : YUV
  15. Chroma subsampling                       : 4:2:0
  16. Bit depth                                : 10 bits
  17. Bits/(Pixel*Frame)                       : 0.215
  18. Stream size                              : 23.8 GiB (75%)
  19. Writing library                          : x265 3.0ed72af837053:[Windows][GCC 8.2.0][64 bit] 10bit
  20. Encoding settings                        : cpuid=1111039 / frame-threads=6 / numa-pools=40 / wpp / no-pmode / no-pme / no-psnr / no-ssim / log-level=2 / input-csp=1 / input-res=3840x1606 / interlace=0 / total-frames=153720 / level-idc=51 / high-tier=1 / uhd-bd=0 / ref=3 / no-allow-non-conformance / repeat-headers / annexb / aud / hrd / info / hash=0 / no-temporal-layers / no-open-gop / min-keyint=1 / keyint=24 / gop-lookahead=0 / bframes=4 / b-adapt=2 / b-pyramid / bframe-bias=0 / rc-lookahead=25 / lookahead-slices=4 / scenecut=40 / radl=0 / no-splice / no-intra-refresh / ctu=64 / min-cu-size=8 / no-rect / no-amp / max-tu-size=32 / tu-inter-depth=1 / tu-intra-depth=1 / limit-tu=0 / rdoq-level=0 / dynamic-rd=0.00 / no-ssim-rd / signhide / no-tskip / nr-intra=0 / nr-inter=0 / no-constrained-intra / strong-intra-smoothing / max-merge=2 / limit-refs=3 / no-limit-modes / me=1 / subme=2 / merange=57 / temporal-mvp / weightp / no-weightb / no-analyze-src-pics / deblock=0:0 / no-sao / no-sao-non-deblock / rd=3 / no-early-skip / rskip / no-fast-intra / no-tskip-fast / no-cu-lossless / no-b-intra / no-splitrd-skip / rdpenalty=0 / psy-rd=2.00 / psy-rdoq=0.00 / no-rd-refine / no-lossless / cbqpoffs=0 / crqpoffs=0 / rc=crf / crf=16.0 / qcomp=0.60 / qpstep=4 / stats-write=0 / stats-read=0 / vbv-maxrate=160000 / vbv-bufsize=160000 / vbv-init=0.9 / crf-max=0.0 / crf-min=0.0 / ipratio=1.40 / pbratio=1.30 / aq-mode=1 / aq-strength=1.00 / cutree / zone-count=0 / no-strict-cbr / qg-size=32 / no-rc-grain / qpmax=69 / qpmin=0 / no-const-vbv / sar=1 / overscan=0 / videoformat=5 / range=0 / colorprim=2 / transfer=2 / colormatrix=2 / chromaloc=0 / display-window=0 / max-cll=0,0 / min-luma=0 / max-luma=1023 / log2-max-poc-lsb=8 / vui-timing-info / vui-hrd-info / slices=1 / opt-qp-pps / opt-ref-list-length-pps / no-multi-pass-opt-rps / scenecut-bias=0.05 / no-opt-cu-delta-qp / no-aq-motion / no-hdr / no-hdr-opt / no-dhdr10-opt / no-idr-recovery-sei / analysis-reuse-level=5 / scale-factor=0 / refine-intra=0 / refine-inter=0 / refine-mv=0 / refine-ctu-distortion=0 / no-limit-sao / ctu-info=0 / no-lowpass-dct / refine-analysis-type=0 / copy-pic=1 / max-ausize-factor=1.0 / no-dynamic-refine / no-single-sei / no-hevc-aq / qp-adaptation-range=1.00
  21. Default                                  : Yes
  22. Forced                                   : No

  23. Audio #1
  24. ID                                       : 2
  25. ID in the original source medium         : 4352 (0x1100)
  26. Format                                   : MLP FBA 16-ch
  27. Format/Info                              : Meridian Lossless Packing FBA with 16-channel presentation
  28. Commercial name                          : Dolby TrueHD with Dolby Atmos
  29. Codec ID                                 : A_TRUEHD
  30. Duration                                 : 1 h 46 min
  31. Bit rate mode                            : Variable
  32. Bit rate                                 : 3 900 kb/s
  33. Maximum bit rate                         : 6 912 kb/s
  34. Channel(s)                               : 8 channels
  35. Channel layout                           : L R C LFE Ls Rs Lb Rb
  36. Sampling rate                            : 48.0 kHz
  37. Frame rate                               : 1 200.000 FPS (40 SPF)
  38. Bit depth                                : 24 bits
  39. Compression mode                         : Lossless
  40. Stream size                              : 2.91 GiB (9%)
  41. Title                                    : TrueHD 7.1 Atmos
  42. Language                                 : English
  43. Default                                  : Yes
  44. Forced                                   : No
  45. Original source medium                   : Blu-ray
  46. Number of dynamic objects                : 11
  47. Bed channel count                        : 1 channel
  48. Bed channel configuration                : LFE

  49. Audio #2
  50. ID                                       : 3
  51. Format                                   : DTS XLL
  52. Format/Info                              : Digital Theater Systems
  53. Commercial name                          : DTS-HD Master Audio
  54. Codec ID                                 : A_DTS
  55. Duration                                 : 1 h 46 min
  56. Bit rate mode                            : Variable
  57. Bit rate                                 : 4 047 kb/s
  58. Channel(s)                               : 8 channels
  59. Channel layout                           : C L R LFE Lb Rb Lss Rss
  60. Sampling rate                            : 48.0 kHz
  61. Frame rate                               : 93.750 FPS (512 SPF)
  62. Bit depth                                : 24 bits
  63. Compression mode                         : Lossless
  64. Stream size                              : 3.02 GiB (9%)
  65. Title                                    : DTS-HD MA 7.1
  66. Language                                 : English
  67. Default                                  : No
  68. Forced                                   : No

  69. Audio #3
  70. ID                                       : 4
  71. ID in the original source medium         : 4352 (0x1100)
  72. Format                                   : AC-3
  73. Format/Info                              : Audio Coding 3
  74. Commercial name                          : Dolby Digital
  75. Format settings                          : Dolby Surround EX
  76. Codec ID                                 : A_AC3
  77. Duration                                 : 1 h 46 min
  78. Bit rate mode                            : Constant
  79. Bit rate                                 : 640 kb/s
  80. Channel(s)                               : 6 channels
  81. Channel layout                           : L R C LFE Ls Rs
  82. Sampling rate                            : 48.0 kHz
  83. Frame rate                               : 31.250 FPS (1536 SPF)
  84. Compression mode                         : Lossy
  85. Stream size                              : 489 MiB (1%)
  86. Title                                    : DD 5.1
  87. Language                                 : English
  88. Service kind                             : Complete Main
  89. Default                                  : No
  90. Forced                                   : No
  91. Original source medium                   : Blu-ray

  92. Audio #4
  93. ID                                       : 5
  94. ID in the original source medium         : 4353 (0x1101)
  95. Format                                   : AC-3
  96. Format/Info                              : Audio Coding 3
  97. Commercial name                          : Dolby Digital
  98. Codec ID                                 : A_AC3
  99. Duration                                 : 1 h 46 min
  100. Bit rate mode                            : Constant
  101. Bit rate                                 : 640 kb/s
  102. Channel(s)                               : 6 channels
  103. Channel layout                           : L R C LFE Ls Rs
  104. Sampling rate                            : 48.0 kHz
  105. Frame rate                               : 31.250 FPS (1536 SPF)
  106. Compression mode                         : Lossy
  107. Stream size                              : 489 MiB (2%)
  108. Title                                    : DD 5.1
  109. Language                                 : English
  110. Service kind                             : Complete Main
  111. Default                                  : No
  112. Forced                                   : No
  113. Original source medium                   : Blu-ray

  114. Audio #5
  115. ID                                       : 6
  116. ID in the original source medium         : 4354 (0x1102)
  117. Format                                   : AC-3
  118. Format/Info                              : Audio Coding 3
  119. Commercial name                          : Dolby Digital
  120. Codec ID                                 : A_AC3
  121. Duration                                 : 1 h 46 min
  122. Bit rate mode                            : Constant
  123. Bit rate                                 : 640 kb/s
  124. Channel(s)                               : 6 channels
  125. Channel layout                           : L R C LFE Ls Rs
  126. Sampling rate                            : 48.0 kHz
  127. Frame rate                               : 31.250 FPS (1536 SPF)
  128. Compression mode                         : Lossy
  129. Stream size                              : 489 MiB (2%)
  130. Title                                    : DD 5.1
  131. Language                                 : English
  132. Service kind                             : Complete Main
  133. Default                                  : No
  134. Forced                                   : No
  135. Original source medium                   : Blu-ray

  136. Audio #6
  137. ID                                       : 7
  138. ID in the original source medium         : 4355 (0x1103)
  139. Format                                   : AC-3
  140. Format/Info                              : Audio Coding 3
  141. Commercial name                          : Dolby Digital
  142. Codec ID                                 : A_AC3
  143. Duration                                 : 1 h 46 min
  144. Bit rate mode                            : Constant
  145. Bit rate                                 : 640 kb/s
  146. Channel(s)                               : 6 channels
  147. Channel layout                           : L R C LFE Ls Rs
  148. Sampling rate                            : 48.0 kHz
  149. Frame rate                               : 31.250 FPS (1536 SPF)
  150. Compression mode                         : Lossy
  151. Stream size                              : 489 MiB (2%)
  152. Title                                    : DD 5.1
  153. Language                                 : Spanish
  154. Service kind                             : Complete Main
  155. Default                                  : No
  156. Forced                                   : No
  157. Original source medium                   : Blu-ray

  158. Audio #7
  159. ID                                       : 8
  160. ID in the original source medium         : 4356 (0x1104)
  161. Format                                   : AC-3
  162. Format/Info                              : Audio Coding 3
  163. Commercial name                          : Dolby Digital
  164. Codec ID                                 : A_AC3
  165. Duration                                 : 1 h 46 min
  166. Bit rate mode                            : Constant
  167. Bit rate                                 : 192 kb/s
  168. Channel(s)                               : 2 channels
  169. Channel layout                           : L R
  170. Sampling rate                            : 48.0 kHz
  171. Frame rate                               : 31.250 FPS (1536 SPF)
  172. Compression mode                         : Lossy
  173. Stream size                              : 147 MiB (0%)
  174. Title                                    : DD 2.0
  175. Language                                 : French
  176. Service kind                             : Complete Main
  177. Default                                  : No
  178. Forced                                   : No
  179. Original source medium                   : Blu-ray

  180. Text #1
  181. ID                                       : 9
  182. Format                                   : UTF-8
  183. Codec ID                                 : S_TEXT/UTF8
  184. Codec ID/Info                            : UTF-8 Plain Text
  185. Duration                                 : 1 h 37 min
  186. Bit rate                                 : 73 b/s
  187. Count of elements                        : 1795
  188. Stream size                              : 52.1 KiB (0%)
  189. Language                                 : English
  190. Default                                  : Yes
  191. Forced                                   : No

  192. Text #2
  193. ID                                       : 10
  194. Format                                   : UTF-8
  195. Codec ID                                 : S_TEXT/UTF8
  196. Codec ID/Info                            : UTF-8 Plain Text
  197. Duration                                 : 1 h 37 min
  198. Bit rate                                 : 80 b/s
  199. Count of elements                        : 2015
  200. Stream size                              : 57.3 KiB (0%)
  201. Title                                    : SDH
  202. Language                                 : English
  203. Default                                  : No
  204. Forced                                   : No

  205. Text #3
  206. ID                                       : 11
  207. ID in the original source medium         : 4768 (0x12A0)
  208. Format                                   : PGS
  209. Muxing mode                              : zlib
  210. Codec ID                                 : S_HDMV/PGS
  211. Codec ID/Info                            : Picture based subtitle format used on BDs/HD-DVDs
  212. Duration                                 : 1 h 37 min
  213. Bit rate                                 : 48.8 kb/s
  214. Count of elements                        : 3594
  215. Stream size                              : 34.0 MiB (0%)
  216. Language                                 : English
  217. Default                                  : No
  218. Forced                                   : No
  219. Original source medium                   : Blu-ray

  220. Text #4
  221. ID                                       : 12
  222. ID in the original source medium         : 4769 (0x12A1)
  223. Format                                   : PGS
  224. Muxing mode                              : zlib
  225. Codec ID                                 : S_HDMV/PGS
  226. Codec ID/Info                            : Picture based subtitle format used on BDs/HD-DVDs
  227. Duration                                 : 1 h 37 min
  228. Bit rate                                 : 56.6 kb/s
  229. Count of elements                        : 4084
  230. Stream size                              : 39.5 MiB (0%)
  231. Language                                 : English
  232. Default                                  : No
  233. Forced                                   : No
  234. Original source medium                   : Blu-ray

  235. Text #5
  236. ID                                       : 13
  237. ID in the original source medium         : 4770 (0x12A2)
  238. Format                                   : PGS
  239. Muxing mode                              : zlib
  240. Codec ID                                 : S_HDMV/PGS
  241. Codec ID/Info                            : Picture based subtitle format used on BDs/HD-DVDs
  242. Duration                                 : 1 h 37 min
  243. Bit rate                                 : 46.9 kb/s
  244. Count of elements                        : 3084
  245. Stream size                              : 32.6 MiB (0%)
  246. Language                                 : Spanish
  247. Default                                  : No
  248. Forced                                   : No
  249. Original source medium                   : Blu-ray

  250. Text #6
  251. ID                                       : 14
  252. ID in the original source medium         : 4771 (0x12A3)
  253. Format                                   : PGS
  254. Muxing mode                              : zlib
  255. Codec ID                                 : S_HDMV/PGS
  256. Codec ID/Info                            : Picture based subtitle format used on BDs/HD-DVDs
  257. Duration                                 : 1 h 46 min
  258. Bit rate                                 : 37.7 kb/s
  259. Count of elements                        : 3182
  260. Stream size                              : 28.6 MiB (0%)
  261. Language                                 : French
  262. Default                                  : No
  263. Forced                                   : No
  264. Original source medium                   : Blu-ray

  265. Menu
  266. 00:00:00.000                             : en:Chapter 01
  267. 00:06:52.286                             : en:Chapter 02
  268. 00:06:53.162                             : en:Chapter 03
  269. 00:13:02.823                             : en:Chapter 04
  270. 00:13:02.948                             : en:Chapter 05
  271. 00:18:37.157                             : en:Chapter 06
  272. 00:18:37.199                             : en:Chapter 07
  273. 00:23:51.763                             : en:Chapter 08
  274. 00:23:51.888                             : en:Chapter 09
  275. 00:30:58.815                             : en:Chapter 10
  276. 00:30:58.857                             : en:Chapter 11
  277. 00:35:46.561                             : en:Chapter 12
  278. 00:35:46.727                             : en:Chapter 13
  279. 00:44:35.005                             : en:Chapter 14
  280. 00:44:35.881                             : en:Chapter 15
  281. 00:52:18.093                             : en:Chapter 16
  282. 00:52:18.468                             : en:Chapter 17
  283. 00:57:09.426                             : en:Chapter 18
  284. 00:57:10.301                             : en:Chapter 19
  285. 01:01:42.156                             : en:Chapter 20
  286. 01:01:42.573                             : en:Chapter 21
  287. 01:07:50.816                             : en:Chapter 22
  288. 01:07:51.692                             : en:Chapter 23
  289. 01:17:42.574                             : en:Chapter 24
  290. 01:17:42.783                             : en:Chapter 25
  291. 01:22:12.469                             : en:Chapter 26
  292. 01:22:12.928                             : en:Chapter 27
  293. 01:28:39.063                             : en:Chapter 28
  294. 01:28:39.939                             : en:Chapter 29
  295. 01:35:49.785                             : en:Chapter 30
  296. 01:35:49.952                             : en:Chapter 31
复制代码




                                       
                                       

                                       
                                       
                                       




天赋不能承受之重 The.Unbearable.Weight.of.Massive.Talent.2022.2160p.BluRay.x265.10bit.SDR.DTS-HD.MA.TrueHD.7.1.Atmos-SWTYBLZ 32.03GB

The.Unbearable.Weight.of.Massive.Talent.2022.2160p.BluRay.x265.10bit.SDR.DTS-HD..torrent

40.85 KB, 下载次数: 3

回复

使用道具 举报

懒得打字嘛,点击右侧快捷回复 【右侧内容,后台自定义】
您需要登录后才可以回帖 登录 | 立即注册

本版积分规则

Archiver|手机版|小黑屋| 中国高清网 |网站地图 

GMT+8, 2022-6-27 13:59 , Processed in 0.117381 second(s), 26 queries .

Powered by HDchina X3.4

Copyright 2017-2019©HDchina.All right reserved

返回顶部 联系我们