查看: 20|回复: 0

[2160p] 天才不能承受之重 The.Unbearable.Weight.of.Massive.Talent.2022.2160p.BluRay.x264.8bit.SDR.DTS-HD.MA.TrueHD.7.1.Atmos-SWTYBLZ 34.03GB

[复制链接]
蓝光币
14 枚
发表于 3 天前 | 显示全部楼层 |阅读模式


◎标  题 天赋不能承受之重
◎译  名 超重天赋 / 超吉使命(台) / 丧尽癫才(港) / 天赋没法承受之重 / 不能承受的天赋之重
◎片  名 The Unbearable Weight of Massive Talent
◎年  代 2022
◎产  地 美国
◎类  别 笑剧 / 行动 / 惊悚 / 犯罪
◎语  言 英语
◎上映日期 2022-03-12(西南偏南电影节) / 2022-04-22(美国)
◎IMDb评分 7.4/10 (21820人评价)
◎IMDb链接 https://www.imdb.com/title/tt11291274/
◎豆瓣评分 7.2/10 (1107人评价)
◎豆瓣链接 https://movie.douban.com/subject/34890458/
◎片  长 107分钟
◎导  演 汤姆·戈米肯 Tom Gormican
◎编  剧 汤姆·戈米肯 Tom Gormican
       凯文·埃滕 Kevin Etten
◎演  员 尼古拉斯·凯奇 Nicolas Cage
       佩德罗·帕斯卡 Pedro Pascal
       蒂凡尼·哈迪斯 Tiffany Haddish
       莎朗·豪根 Sharon Horgan
       帕科·莱昂 Paco León
       尼尔·帕特里克·哈里斯 Neil Patrick Harris
       莉莉·莫·辛 Lily Mo Sheen
       亚历桑德拉·马斯特罗纳迪 Alessandra Mastronardi
       雅各布·西皮奥 Jacob Scipio
       卡特琳·万科娃 Katrin Vankova
       黛米·摩尔 Demi Moore
       安娜·麦克唐纳 Anna MacDonald
       大卫·戈登·格林 David Gordon Green
       伊克·巴里霍尔兹 Ike Barinholtz
       卢克·麦昆 Luke McQueen
       乔安娜·波宾 Joanna Bobin
       曼纽尔陶勒 Manuel Tallafé
       里卡德·巴拉达 Ricard Balada
       杰米·奥多尼斯 Jaime Ordóñez
       丽贝卡·芬奇 Rebecca Finch
       卡罗琳·博尔顿 Caroline Boulton
       比约恩·弗赖贝格 Björn Freiberg
       艾丽·简 Eli Jane
       哈里·陶乐西 Harry Taurasi
       András Korcsmáros András Korcsmáros
       尼克·威特曼 Nick Wittman
       帕科·德尔加多 Paco Delgado
◎简  介

  尼古拉斯·凯奇(Nicolas Cage)有新片了,此次他要在电影里演自己。                                       
                                    该片配角就是尼古拉斯·凯奇本人,他疯狂的渴望在昆汀·塔伦蒂诺的下部电影里获得一个脚色,他经常会和自己脑海中一个90年月的自己对话,后者不竭吐槽他“总是接烂片”、“再也不是昔时阿谁电影明星”了。                                       
                                    报告破产边沿的凯奇为了100万美圆的报酬去加入一个亿万富翁粉丝(佩德罗·帕斯卡 饰)的生日派对,但这位富豪是一个危险的毒枭。当凯奇被一位CIA奸细招募后,工作发生了意想不到的改变,为了拯救自己和亲人,他被迫出演一个终生难忘的脚色——尼古拉斯·凯奇,用他最具标志性和最受爱好的银幕脚色来实行自己的传奇人生。                                       
                                    《才华不能承受之重》会有多个桥段向凯奇的代表作致敬,包括《分开拉斯维加斯》(Leaving Las Vegas)、《变脸》(Face-Off)、《极速60秒》(Gone in 60 ...
  1. Video
  2. ID                                       : 1
  3. Format                                   : AVC
  4. Format/Info                              : Advanced Video Codec
  5. Format profile                           : [email protected]
  6. Format settings                          : CABAC / 5 Ref Frames
  7. Format settings, CABAC                   : Yes
  8. Format settings, Reference frames        : 5 frames
  9. Codec ID                                 : V_MPEG4/ISO/AVC
  10. Duration                                 : 1 h 46 min
  11. Bit rate                                 : 34.5 Mb/s
  12. Width                                    : 3 840 pixels
  13. Height                                   : 1 606 pixels
  14. Display aspect ratio                     : 2.40:1
  15. Frame rate mode                          : Constant
  16. Frame rate                               : 23.976 (24000/1001/189150) FPS
  17. Color space                              : YUV
  18. Chroma subsampling                       : 4:2:0
  19. Bit depth                                : 8 bits
  20. Scan type                                : Progressive
  21. Bits/(Pixel*Frame)                       : 0.233
  22. Stream size                              : 25.7 GiB (76%)
  23. Writing library                          : x264 core 157 r2935 545de2f
  24. Encoding settings                        : cabac=1 / ref=5 / deblock=1:-1:-1 / analyse=0x3:0x113 / me=umh / subme=10 / psy=1 / psy_rd=1.00:0.15 / mixed_ref=1 / me_range=48 / chroma_me=1 / trellis=2 / 8x8dct=1 / cqm=0 / deadzone=21,11 / fast_pskip=1 / chroma_qp_offset=-3 / threads=48 / lookahead_threads=4 / sliced_threads=0 / nr=0 / decimate=0 / interlaced=0 / bluray_compat=0 / constrained_intra=0 / bframes=3 / b_pyramid=2 / b_adapt=2 / b_bias=0 / direct=3 / weightb=1 / open_gop=0 / weightp=2 / keyint=250 / keyint_min=23 / scenecut=40 / intra_refresh=0 / rc_lookahead=50 / rc=crf / mbtree=1 / crf=18.0 / qcomp=0.60 / qpmin=0 / qpmax=69 / qpstep=4 / ip_ratio=1.40 / aq=1:1.00
  25. Default                                  : Yes
  26. Forced                                   : No

  27. Audio #1
  28. ID                                       : 2
  29. ID in the original source medium         : 4352 (0x1100)
  30. Format                                   : MLP FBA 16-ch
  31. Format/Info                              : Meridian Lossless Packing FBA with 16-channel presentation
  32. Commercial name                          : Dolby TrueHD with Dolby Atmos
  33. Codec ID                                 : A_TRUEHD
  34. Duration                                 : 1 h 46 min
  35. Bit rate mode                            : Variable
  36. Bit rate                                 : 3 900 kb/s
  37. Maximum bit rate                         : 6 912 kb/s
  38. Channel(s)                               : 8 channels
  39. Channel layout                           : L R C LFE Ls Rs Lb Rb
  40. Sampling rate                            : 48.0 kHz
  41. Frame rate                               : 1 200.000 FPS (40 SPF)
  42. Bit depth                                : 24 bits
  43. Compression mode                         : Lossless
  44. Stream size                              : 2.91 GiB (9%)
  45. Title                                    : TrueHD 7.1 Atmos
  46. Language                                 : English
  47. Default                                  : Yes
  48. Forced                                   : No
  49. Original source medium                   : Blu-ray
  50. Number of dynamic objects                : 11
  51. Bed channel count                        : 1 channel
  52. Bed channel configuration                : LFE

  53. Audio #2
  54. ID                                       : 3
  55. Format                                   : DTS XLL
  56. Format/Info                              : Digital Theater Systems
  57. Commercial name                          : DTS-HD Master Audio
  58. Codec ID                                 : A_DTS
  59. Duration                                 : 1 h 46 min
  60. Bit rate mode                            : Variable
  61. Bit rate                                 : 4 047 kb/s
  62. Channel(s)                               : 8 channels
  63. Channel layout                           : C L R LFE Lb Rb Lss Rss
  64. Sampling rate                            : 48.0 kHz
  65. Frame rate                               : 93.750 FPS (512 SPF)
  66. Bit depth                                : 24 bits
  67. Compression mode                         : Lossless
  68. Stream size                              : 3.02 GiB (9%)
  69. Title                                    : DTS-HD MA 7.1
  70. Language                                 : English
  71. Default                                  : No
  72. Forced                                   : No

  73. Audio #3
  74. ID                                       : 4
  75. ID in the original source medium         : 4352 (0x1100)
  76. Format                                   : AC-3
  77. Format/Info                              : Audio Coding 3
  78. Commercial name                          : Dolby Digital
  79. Format settings                          : Dolby Surround EX
  80. Codec ID                                 : A_AC3
  81. Duration                                 : 1 h 46 min
  82. Bit rate mode                            : Constant
  83. Bit rate                                 : 640 kb/s
  84. Channel(s)                               : 6 channels
  85. Channel layout                           : L R C LFE Ls Rs
  86. Sampling rate                            : 48.0 kHz
  87. Frame rate                               : 31.250 FPS (1536 SPF)
  88. Compression mode                         : Lossy
  89. Stream size                              : 489 MiB (1%)
  90. Title                                    : DD 5.1
  91. Language                                 : English
  92. Service kind                             : Complete Main
  93. Default                                  : No
  94. Forced                                   : No
  95. Original source medium                   : Blu-ray

  96. Audio #4
  97. ID                                       : 5
  98. ID in the original source medium         : 4353 (0x1101)
  99. Format                                   : AC-3
  100. Format/Info                              : Audio Coding 3
  101. Commercial name                          : Dolby Digital
  102. Codec ID                                 : A_AC3
  103. Duration                                 : 1 h 46 min
  104. Bit rate mode                            : Constant
  105. Bit rate                                 : 640 kb/s
  106. Channel(s)                               : 6 channels
  107. Channel layout                           : L R C LFE Ls Rs
  108. Sampling rate                            : 48.0 kHz
  109. Frame rate                               : 31.250 FPS (1536 SPF)
  110. Compression mode                         : Lossy
  111. Stream size                              : 489 MiB (1%)
  112. Title                                    : DD 5.1
  113. Language                                 : English
  114. Service kind                             : Complete Main
  115. Default                                  : No
  116. Forced                                   : No
  117. Original source medium                   : Blu-ray

  118. Audio #5
  119. ID                                       : 6
  120. ID in the original source medium         : 4354 (0x1102)
  121. Format                                   : AC-3
  122. Format/Info                              : Audio Coding 3
  123. Commercial name                          : Dolby Digital
  124. Codec ID                                 : A_AC3
  125. Duration                                 : 1 h 46 min
  126. Bit rate mode                            : Constant
  127. Bit rate                                 : 640 kb/s
  128. Channel(s)                               : 6 channels
  129. Channel layout                           : L R C LFE Ls Rs
  130. Sampling rate                            : 48.0 kHz
  131. Frame rate                               : 31.250 FPS (1536 SPF)
  132. Compression mode                         : Lossy
  133. Stream size                              : 489 MiB (1%)
  134. Title                                    : DD 5.1
  135. Language                                 : English
  136. Service kind                             : Complete Main
  137. Default                                  : No
  138. Forced                                   : No
  139. Original source medium                   : Blu-ray

  140. Audio #6
  141. ID                                       : 7
  142. ID in the original source medium         : 4355 (0x1103)
  143. Format                                   : AC-3
  144. Format/Info                              : Audio Coding 3
  145. Commercial name                          : Dolby Digital
  146. Codec ID                                 : A_AC3
  147. Duration                                 : 1 h 46 min
  148. Bit rate mode                            : Constant
  149. Bit rate                                 : 640 kb/s
  150. Channel(s)                               : 6 channels
  151. Channel layout                           : L R C LFE Ls Rs
  152. Sampling rate                            : 48.0 kHz
  153. Frame rate                               : 31.250 FPS (1536 SPF)
  154. Compression mode                         : Lossy
  155. Stream size                              : 489 MiB (1%)
  156. Title                                    : DD 5.1
  157. Language                                 : Spanish
  158. Service kind                             : Complete Main
  159. Default                                  : No
  160. Forced                                   : No
  161. Original source medium                   : Blu-ray

  162. Audio #7
  163. ID                                       : 8
  164. ID in the original source medium         : 4356 (0x1104)
  165. Format                                   : AC-3
  166. Format/Info                              : Audio Coding 3
  167. Commercial name                          : Dolby Digital
  168. Codec ID                                 : A_AC3
  169. Duration                                 : 1 h 46 min
  170. Bit rate mode                            : Constant
  171. Bit rate                                 : 192 kb/s
  172. Channel(s)                               : 2 channels
  173. Channel layout                           : L R
  174. Sampling rate                            : 48.0 kHz
  175. Frame rate                               : 31.250 FPS (1536 SPF)
  176. Compression mode                         : Lossy
  177. Stream size                              : 147 MiB (0%)
  178. Title                                    : DD 2.0
  179. Language                                 : French
  180. Service kind                             : Complete Main
  181. Default                                  : No
  182. Forced                                   : No
  183. Original source medium                   : Blu-ray

  184. Text #1
  185. ID                                       : 9
  186. Format                                   : UTF-8
  187. Codec ID                                 : S_TEXT/UTF8
  188. Codec ID/Info                            : UTF-8 Plain Text
  189. Duration                                 : 1 h 37 min
  190. Bit rate                                 : 73 b/s
  191. Count of elements                        : 1795
  192. Stream size                              : 52.1 KiB (0%)
  193. Language                                 : English
  194. Default                                  : Yes
  195. Forced                                   : No

  196. Text #2
  197. ID                                       : 10
  198. Format                                   : UTF-8
  199. Codec ID                                 : S_TEXT/UTF8
  200. Codec ID/Info                            : UTF-8 Plain Text
  201. Duration                                 : 1 h 37 min
  202. Bit rate                                 : 80 b/s
  203. Count of elements                        : 2015
  204. Stream size                              : 57.3 KiB (0%)
  205. Title                                    : SDH
  206. Language                                 : English
  207. Default                                  : No
  208. Forced                                   : No

  209. Text #3
  210. ID                                       : 11
  211. ID in the original source medium         : 4768 (0x12A0)
  212. Format                                   : PGS
  213. Muxing mode                              : zlib
  214. Codec ID                                 : S_HDMV/PGS
  215. Codec ID/Info                            : Picture based subtitle format used on BDs/HD-DVDs
  216. Duration                                 : 1 h 37 min
  217. Bit rate                                 : 48.8 kb/s
  218. Count of elements                        : 3594
  219. Stream size                              : 34.0 MiB (0%)
  220. Language                                 : English
  221. Default                                  : No
  222. Forced                                   : No
  223. Original source medium                   : Blu-ray

  224. Text #4
  225. ID                                       : 12
  226. ID in the original source medium         : 4769 (0x12A1)
  227. Format                                   : PGS
  228. Muxing mode                              : zlib
  229. Codec ID                                 : S_HDMV/PGS
  230. Codec ID/Info                            : Picture based subtitle format used on BDs/HD-DVDs
  231. Duration                                 : 1 h 37 min
  232. Bit rate                                 : 56.6 kb/s
  233. Count of elements                        : 4084
  234. Stream size                              : 39.5 MiB (0%)
  235. Language                                 : English
  236. Default                                  : No
  237. Forced                                   : No
  238. Original source medium                   : Blu-ray

  239. Text #5
  240. ID                                       : 13
  241. ID in the original source medium         : 4770 (0x12A2)
  242. Format                                   : PGS
  243. Muxing mode                              : zlib
  244. Codec ID                                 : S_HDMV/PGS
  245. Codec ID/Info                            : Picture based subtitle format used on BDs/HD-DVDs
  246. Duration                                 : 1 h 37 min
  247. Bit rate                                 : 46.9 kb/s
  248. Count of elements                        : 3084
  249. Stream size                              : 32.6 MiB (0%)
  250. Language                                 : Spanish
  251. Default                                  : No
  252. Forced                                   : No
  253. Original source medium                   : Blu-ray

  254. Text #6
  255. ID                                       : 14
  256. ID in the original source medium         : 4771 (0x12A3)
  257. Format                                   : PGS
  258. Muxing mode                              : zlib
  259. Codec ID                                 : S_HDMV/PGS
  260. Codec ID/Info                            : Picture based subtitle format used on BDs/HD-DVDs
  261. Duration                                 : 1 h 46 min
  262. Bit rate                                 : 37.7 kb/s
  263. Count of elements                        : 3182
  264. Stream size                              : 28.6 MiB (0%)
  265. Language                                 : French
  266. Default                                  : No
  267. Forced                                   : No
  268. Original source medium                   : Blu-ray

  269. Menu
  270. 00:00:00.000                             : en:Chapter 01
  271. 00:06:52.286                             : en:Chapter 02
  272. 00:06:53.162                             : en:Chapter 03
  273. 00:13:02.823                             : en:Chapter 04
  274. 00:13:02.948                             : en:Chapter 05
  275. 00:18:37.157                             : en:Chapter 06
  276. 00:18:37.199                             : en:Chapter 07
  277. 00:23:51.763                             : en:Chapter 08
  278. 00:23:51.888                             : en:Chapter 09
  279. 00:30:58.815                             : en:Chapter 10
  280. 00:30:58.857                             : en:Chapter 11
  281. 00:35:46.561                             : en:Chapter 12
  282. 00:35:46.727                             : en:Chapter 13
  283. 00:44:35.005                             : en:Chapter 14
  284. 00:44:35.881                             : en:Chapter 15
  285. 00:52:18.093                             : en:Chapter 16
  286. 00:52:18.468                             : en:Chapter 17
  287. 00:57:09.426                             : en:Chapter 18
  288. 00:57:10.301                             : en:Chapter 19
  289. 01:01:42.156                             : en:Chapter 20
  290. 01:01:42.573                             : en:Chapter 21
  291. 01:07:50.816                             : en:Chapter 22
  292. 01:07:51.692                             : en:Chapter 23
  293. 01:17:42.574                             : en:Chapter 24
  294. 01:17:42.783                             : en:Chapter 25
  295. 01:22:12.469                             : en:Chapter 26
  296. 01:22:12.928                             : en:Chapter 27
  297. 01:28:39.063                             : en:Chapter 28
  298. 01:28:39.939                             : en:Chapter 29
  299. 01:35:49.785                             : en:Chapter 30
  300. 01:35:49.952                             : en:Chapter 31
复制代码




                                       
                                       

                                       
                                       
                                       




天赋不能承受之重 The.Unbearable.Weight.of.Massive.Talent.2022.2160p.BluRay.x264.8bit.SDR.DTS-HD.MA.TrueHD.7.1.Atmos-SWTYBLZ 34.03GB

The.Unbearable.Weight.of.Massive.Talent.2022.2160p.BluRay.x264.8bit.SDR.DTS-HD.M.torrent

43.35 KB, 下载次数: 1

回复

使用道具 举报

懒得打字嘛,点击右侧快捷回复 【右侧内容,后台自定义】
您需要登录后才可以回帖 登录 | 立即注册

本版积分规则

Archiver|手机版|小黑屋| 中国高清网 |网站地图 

GMT+8, 2022-6-27 13:51 , Processed in 0.124324 second(s), 26 queries .

Powered by HDchina X3.4

Copyright 2017-2019©HDchina.All right reserved

返回顶部 联系我们