查看: 9|回复: 0

[2160p] 黑街神探 Shaft.1971.2160p.BluRay.x264.8bit.SDR.LPCM.1.0-SWTYBLZ 54.75GB

[复制链接]
蓝光币
14 枚
发表于 3 天前 | 显示全部楼层 |阅读模式


◎标  题 黑街神探
◎译  名 夏福特 / 铁杆神探
◎片  名 Shaft
◎年  代 1971
◎产  地 美国
◎类  别 行动 / 惊悚 / 犯罪
◎语  言 英语
◎上映日期 1971-07-02
◎IMDb评分 6.6/10 (18188人评价)
◎IMDb链接 https://www.imdb.com/title/tt0067741/
◎豆瓣评分 7.0/10 (335人评价)
◎豆瓣链接 https://movie.douban.com/subject/1294071/
◎片  长 100 分钟
◎导  演 戈登·帕克斯 Gordon Parks
◎编  剧 欧内斯特·泰迪曼 Ernest Tidyman
◎演  员 理查德·朗德特里 Richard Roundtree
       摩西·冈恩 Moses Gunn
       查尔斯·乔菲 Charles Cioffi
       克里斯托弗·圣约翰 Christopher St. John
       劳伦斯·普莱斯曼 Lawrence Pressman
       维克多·阿诺德 Victor Arnold
       雷克斯·罗宾斯 Rex Robbins
       约瑟夫·利昂 Joseph Leon
       阿诺德·约翰逊 Arnold Johnson
       多米尼克·巴托 Dominic Barto
       德鲁·邦迪尼·布朗 Drew Bundini Brown
       希门·鲁斯金 Shimen Ruskin
       安东尼奥·法加斯 Antonio Fargas
       格特鲁德·珍妮特 Gertrude Jeannette
       李·斯蒂尔 Lee Steele
       托尼·金 Tony King
       丹尼斯·泰特 Dennis Tate
       亚当·韦德 Adam Wade
       克利·伯顿亚 Clee Burtonya
       埃德·伯纳德 Ed Bernard
       埃迪·巴特 Eddie Barth
       保罗·内文斯 Paul Nevens
       戈登·帕克斯 Gordon Parks
       J.J. Johnson J.J. Johnson
       艾萨克·海耶斯 Isaac Hayes
       罗伯特·德拉姆海勒 Robert Drumheller
       Joseph G. Aulisi Joseph G. Aulisi
◎标  签 美国 / Blaxploitation / 1971 / 美国电影 / 行动 / 犯罪 / 1970s / 剧情
◎简  介

  纽约侦察约翰·夏福特勇敢强悍,他受命打点哈林区角头老迈女儿的绑架案,却也是以和一切黑帮为敌。各路人马的对决,一触即发!
  1. Video
  2. ID                                       : 1
  3. Format                                   : AVC
  4. Format/Info                              : Advanced Video Codec
  5. Format profile                           : [email protected]
  6. Format settings                          : CABAC / 5 Ref Frames
  7. Format settings, CABAC                   : Yes
  8. Format settings, Reference frames        : 5 frames
  9. Codec ID                                 : V_MPEG4/ISO/AVC
  10. Duration                                 : 1 h 40 min
  11. Bit rate                                 : 75.8 Mb/s
  12. Width                                    : 3 840 pixels
  13. Height                                   : 2 076 pixels
  14. Display aspect ratio                     : 1.85:1
  15. Frame rate mode                          : Constant
  16. Frame rate                               : 23.976 (24000/1001/189150) FPS
  17. Color space                              : YUV
  18. Chroma subsampling                       : 4:2:0
  19. Bit depth                                : 8 bits
  20. Scan type                                : Progressive
  21. Bits/(Pixel*Frame)                       : 0.397
  22. Stream size                              : 53.2 GiB (98%)
  23. Writing library                          : x264 core 157 r2935 545de2f
  24. Encoding settings                        : cabac=1 / ref=5 / deblock=1:-1:-1 / analyse=0x3:0x113 / me=umh / subme=10 / psy=1 / psy_rd=1.00:0.15 / mixed_ref=1 / me_range=48 / chroma_me=1 / trellis=2 / 8x8dct=1 / cqm=0 / deadzone=21,11 / fast_pskip=1 / chroma_qp_offset=-3 / threads=48 / lookahead_threads=4 / sliced_threads=0 / nr=0 / decimate=0 / interlaced=0 / bluray_compat=0 / constrained_intra=0 / bframes=3 / b_pyramid=2 / b_adapt=2 / b_bias=0 / direct=3 / weightb=1 / open_gop=0 / weightp=2 / keyint=250 / keyint_min=23 / scenecut=40 / intra_refresh=0 / rc_lookahead=50 / rc=crf / mbtree=1 / crf=20.0 / qcomp=0.60 / qpmin=0 / qpmax=69 / qpstep=4 / ip_ratio=1.40 / aq=1:1.00
  25. Default                                  : Yes
  26. Forced                                   : No

  27. Audio #1
  28. ID                                       : 2
  29. ID in the original source medium         : 4352 (0x1100)
  30. Format                                   : PCM
  31. Format settings                          : Little / Signed
  32. Codec ID                                 : A_PCM/INT/LIT
  33. Duration                                 : 1 h 40 min
  34. Bit rate mode                            : Constant
  35. Bit rate                                 : 1 152 kb/s
  36. Channel(s)                               : 1 channel
  37. Sampling rate                            : 48.0 kHz
  38. Frame rate                               : 30.000 FPS (1600 SPF)
  39. Bit depth                                : 24 bits
  40. Stream size                              : 828 MiB (1%)
  41. Title                                    : LPCM 1.0
  42. Language                                 : English
  43. Default                                  : Yes
  44. Forced                                   : No
  45. Original source medium                   : Blu-ray

  46. Audio #2
  47. ID                                       : 3
  48. Format                                   : AC-3
  49. Format/Info                              : Audio Coding 3
  50. Commercial name                          : Dolby Digital
  51. Codec ID                                 : A_AC3
  52. Duration                                 : 1 h 40 min
  53. Bit rate mode                            : Constant
  54. Bit rate                                 : 640 kb/s
  55. Channel(s)                               : 1 channel
  56. Channel layout                           : C
  57. Sampling rate                            : 48.0 kHz
  58. Frame rate                               : 31.250 FPS (1536 SPF)
  59. Compression mode                         : Lossy
  60. Stream size                              : 460 MiB (1%)
  61. Title                                    : DD 1.0
  62. Language                                 : English
  63. Service kind                             : Complete Main
  64. Default                                  : No
  65. Forced                                   : No

  66. Text #1
  67. ID                                       : 4
  68. Format                                   : UTF-8
  69. Codec ID                                 : S_TEXT/UTF8
  70. Codec ID/Info                            : UTF-8 Plain Text
  71. Duration                                 : 1 h 38 min
  72. Bit rate                                 : 45 b/s
  73. Count of elements                        : 969
  74. Stream size                              : 33.0 KiB (0%)
  75. Language                                 : English
  76. Default                                  : Yes
  77. Forced                                   : No

  78. Text #2
  79. ID                                       : 5
  80. Format                                   : UTF-8
  81. Codec ID                                 : S_TEXT/UTF8
  82. Codec ID/Info                            : UTF-8 Plain Text
  83. Duration                                 : 1 h 38 min
  84. Bit rate                                 : 49 b/s
  85. Count of elements                        : 1054
  86. Stream size                              : 35.3 KiB (0%)
  87. Title                                    : SDH
  88. Language                                 : English
  89. Default                                  : No
  90. Forced                                   : No

  91. Text #3
  92. ID                                       : 6
  93. ID in the original source medium         : 4768 (0x12A0)
  94. Format                                   : PGS
  95. Muxing mode                              : zlib
  96. Codec ID                                 : S_HDMV/PGS
  97. Codec ID/Info                            : Picture based subtitle format used on BDs/HD-DVDs
  98. Duration                                 : 1 h 38 min
  99. Bit rate                                 : 42.1 kb/s
  100. Count of elements                        : 2154
  101. Stream size                              : 29.6 MiB (0%)
  102. Language                                 : English
  103. Default                                  : No
  104. Forced                                   : No
  105. Original source medium                   : Blu-ray

  106. Menu
  107. 00:00:00.000                             : en:Chapter 01
  108. 00:04:26.432                             : en:Chapter 02
  109. 00:09:19.517                             : en:Chapter 03
  110. 00:11:59.218                             : en:Chapter 04
  111. 00:18:59.721                             : en:Chapter 05
  112. 00:27:04.581                             : en:Chapter 06
  113. 00:33:41.060                             : en:Chapter 07
  114. 00:36:09.458                             : en:Chapter 08
  115. 00:42:35.803                             : en:Chapter 09
  116. 00:45:26.515                             : en:Chapter 10
  117. 00:48:50.302                             : en:Chapter 11
  118. 00:57:23.064                             : en:Chapter 12
  119. 01:04:34.078                             : en:Chapter 13
  120. 01:13:05.381                             : en:Chapter 14
  121. 01:16:24.288                             : en:Chapter 15
  122. 01:26:27.307                             : en:Chapter 16
  123. 01:36:06.135                             : en:Chapter 17
复制代码




                                       
                                       

                                       
                                       
                                       




Shaft.1971.2160p.BluRay.x264.8bit.SDR.LPCM.1.0-SWTYBLZ.torrent (69.14 KB, 下载次数: 0)
回复

使用道具 举报

懒得打字嘛,点击右侧快捷回复 【右侧内容,后台自定义】
您需要登录后才可以回帖 登录 | 立即注册

本版积分规则

Archiver|手机版|小黑屋| 中国高清网 |网站地图 

GMT+8, 2022-6-27 14:19 , Processed in 0.100889 second(s), 26 queries .

Powered by HDchina X3.4

Copyright 2017-2019©HDchina.All right reserved

返回顶部 联系我们